.
Авторизация | Регистрация
» » 2 спальни, 1 ванная / 2 Bedroom 1 Bath (2014) HDTV 1080i от MediaClub | P скачать через торрент бесплатно




    2 спальни, 1 ванная / 2 Bedroom 1 Bath (2014) HDTV 1080i от MediaClub | P скачать через торрент бесплатно

    Опубликовал: Админ | Дата: 27-02-2015, 11:10 | Просмотров: 125


    Детально о кино
    Русское название:2 спальни, 1 ванная
    Русское название в мировом прокате:2 Bedroom 1 Bath
    Создали в:2014
    Категория жанра:Ужасы, триллер
    Главный режиссер:Стэнли Юнг
    Актеры:Мишель Хикс, Эндрю В. Уолкер, Эрик Робертс, Ди Уоллес-Стоун, Костас Мэндилор, Шошана Буш, Шелби Янг, Эйден Флауэрс, Джек Доннер, Руби Лу Смит
    Сюжет фильма:
    Молодая пара, Кевин и Рейчел, переезжают в дом, который им видится идеальным для создания новой семьи. Вскоре выясняется, что Рейчел беременна и, казалось бы, счастью супругам нет предела, но с приятной новостью приходят и загадочные, ужасающие события. Кевину начинают сниться кошмары, которые не перестают его преследовать даже наяву, а Рейчел не дает покоя призрак в красном платье. Чем больше некогда счастливая пара пытается распутать причины происходящего, тем больше они понимают, что все события сосредоточены вокруг рождения их будущего ребенка.

    Снималось в:США
    Киностудия:Al Bravo Films, Chemical mind studios
    Время просмотра:01:26:50
    Перевод текста:Профессиональный многоголосый
    Файл
    Кодек для видео:MPEG-4 AVC
    Качество фильма:HDTV 1080i
    Информация о видео:5309 Кбит/с, 1920x1080, 25.000 кадр/с
    Информация о звуке:Русский (АС3, 6 ch, 448 Кбит/с)
    Семпл
    Скриншоты для ознакомления

    MI
    Общее
    Идентификатор : 20 (0x14)
    Полное имя : 2.spalni.1.vanna.2014.HDTV(1080i).MediaClub.ts
    Формат : MPEG-TS
    Размер файла : 3,68 Гбайт
    Продолжительность : 1 ч. 26 м.
    Режим общего битрейта : Переменный
    Общий поток : 6061 Кбит/сек
    Видео
    Идентификатор : 302 (0x12E)
    Идентификатор меню : 20102 (0x4E86)
    Формат : AVC
    Формат/Информация : Advanced Video Codec
    Профиль формата : High@L4.0
    Параметр CABAC формата : Да
    Параметр ReFrames формата : 4 кадра
    Параметр GOP формата : M=4, N=28
    Идентификатор кодека : 27
    Продолжительность : 1 ч. 26 м.
    Битрейт : 5309 Кбит/сек
    Ширина : 1920 пикселей
    Высота : 1080 пикселей
    Соотношение сторон : 16:9
    Частота кадров : 25,000 кадров/сек
    Стандарт вещания : Component
    Цветовое пространство : YUV
    Субдискретизация насыщенности : 4:2:0
    Битовая глубина : 8 бит
    Тип развёртки : Чересстрочная
    Порядок развёртки : Верхнее поле первое
    Бит/(Пиксели*Кадры) : 0.102
    Размер потока : 3,22 Гбайт (88%)
    Основные цвета : BT.709
    Характеристики трансфера : BT.709
    Коэффициенты матрицы : BT.709
    Аудио
    Идентификатор : 402 (0x192)
    Идентификатор меню : 20102 (0x4E86)
    Формат : AC-3
    Формат/Информация : Audio Coding 3
    Расширение режима : CM (complete main)
    Параметр Endianness формата : Big
    Идентификатор кодека : 6
    Продолжительность : 1 ч. 26 м.
    Вид битрейта : Постоянный
    Битрейт : 448 Кбит/сек
    Каналы : 6 каналов
    Расположение каналов : Front: L C R, Side: L R, LFE
    Частота : 48,0 КГц
    Битовая глубина : 16 бит
    Метод сжатия : С потерями
    Задержка видео : -889 мс.
    Размер потока : 278 Мбайт (7%)
    Язык : Russian
    Язык, дополнительно : Clean effects
    Меню
    Идентификатор : 2002 (0x7D2)
    Идентификатор меню : 20102 (0x4E86)
    Продолжительность : 1 ч. 26 м.
    Список : 302 (0x12E) (AVC)/402 (0x192) (AC-3, Russian)
    Язык :/Russian

    Релиз подготовил:
    Залил: poja
    Размер скачиваемого торрента: 3.68 GB (3948212816 Bytes)

    2 спальни, 1 ванная/2 Bedroom 1 Bath (2014) HDTV 1080i от MediaClub | P скачать через торрент бесплатно
    загрузка...
    Рейтинг →
     (голосов: 1, оценка 4/5, голосовать можно 1 раз )

    Другие торренты по теме:

  • Квартирный вопрос. Звездная спальня (2013) SATRip-AVC торрент скачать бесплатно
  • В спальне / In the Bedroom (2001) WEB-DLRip-AVC | P скачать через торрент бесплатно
  • В спальне / In the Bedroom (2001) HDRip от Scarabey | Р скачать через торрент бесплатно
  • Окно спальни / The Bedroom Window (1986) DVDRip-AVC скачать через торрент бесплатно
  • 2 спальни, 1 ванная / 2 Bedroom 1 Bath (2014) SATRip от MediaClub | P скачать через торрент бесплатно
  • 2 спальни, 1 ванная / 2 Bedroom 1 Bath торрент скачать бесплатно
  • 2 спальни, 1 ванная / 2 Bedroom 1 Bath (2014) HDTVRip 720p от MediaClub | P торрент скачать бесплатно
  • 2 спальни, 1 ванная / 2 Bedroom 1 Bath (2014) HDTVRip от MediaClub | КПК скачать торрент бесплатно


    • Комментарии (0):

      Информация

      Информация

        Посетители, находящиеся в группе Гости, не могут оставлять комментарии в данной новости.

        ↓ Меню



        ↓ Опрос

        А Вы добавили сайт в закладки?
        Да
        Не


        Top 10 за неделю (Фильмы)