.
Авторизация | Регистрация
» » Париж: Город мёртвых / As Above, So Below (2014) BDRip 720p от KinoRay | iTunes скачать через торрент бесплатно




    Париж: Город мёртвых / As Above, So Below (2014) BDRip 720p от KinoRay | iTunes скачать через торрент бесплатно

    Опубликовал: Админ | Дата: 27-02-2015, 11:10 | Просмотров: 220


    Детально о кино
    Русское название: Париж: Город мёртвых
    Русское название в мировом прокате: As Above, So Below
    Создали в: 2014
    Категория жанра: ужасы, триллер
    Главный режиссер: Джон Эрик Даудл
    Актеры:Пердита Викс, Бен Фельдман, Эдвин Ходж, Франсуа Сивиль, Мэрион Ламберт, Али Мархьяр, Косме Кастро, Хамид Джавадан, Тео Чолби, Эми Леви
    Сюжет фильма:Величие Эйфелевой башни и роскошь бутиков, ароматы изысканной кухни и краски Елисейских полей — это лишь саван, под которым скрывается настоящий Париж. Здесь, в бесконечных катакомбах живут истинные владыки этого мира.
    Заблудшая душа, добро пожаловать в Город мертвых…


    Снималось в: США
    Время просмотра: 01:33:09
    Тип перевода:Дублированное iTunes
    Файл
    Тип видео: MKV (H.264)
    Качество фильма: BDRip 720p
    Информация о видео: 7286 Kb/s, 1280x694
    Информация о звуке: Russian: AC3, 384 kb/s (6 ch)/English: DTS, 1510 kb/s (6 ch)
    Субтитры:English


    MI
    Format : Matroska
    Format version : Version 2
    File size : 6.09 GiB
    Duration : 1h 33mn
    Overall bit rate : 9 365 Kbps
    Movie name : HDA KR
    Encoded date : UTC 2014-11-26 18:32:00
    Writing application : mkvmerge v3.3.0 (;Language;) built on Mar 24 2010 14:59:24
    Writing library : libebml v0.8.0 + libmatroska v0.9.0
    DURATION : 01:31:33.237000000
    NUMBER_OF_FRAMES : 1575
    NUMBER_OF_BYTES : 41777
    _STATISTICS_WRITING_APP : mkvmerge v7.3.0 (;Nouages;) 64bit built on Oct 22 2014 18:53:34
    _STATISTICS_WRITING_DATE_UTC : 2014-11-19 08:45:27
    _STATISTICS_TAGS : BPS DURATION NUMBER_OF_FRAMES NUMBER_OF_BYTES
    Video #1
    ID : 1
    Format : AVC
    Format/Info : Advanced Video Codec
    Format profile : High@L4.1
    Format settings, CABAC : Yes
    Format settings, ReFrames : 9 frames
    Codec ID : V_MPEG4/ISO/AVC
    Duration : 1h 33mn
    Bit rate : 7 286 Kbps
    Width : 1 280 pixels
    Height : 694 pixels
    Display aspect ratio : 1.85:1
    Frame rate mode : Constant
    Frame rate : 23.976 fps
    Color space : YUV
    Chroma subsampling : 4:2:0
    Bit depth : 8 bits
    Scan type : Progressive
    Bits/(Pixel*Frame) : 0.342
    Stream size : 4.74 GiB (78%)
    Writing library : x264 core 142 r2431kMod ac76440
    Encoding settings : cabac=1/ref=9/deblock=1:-3:-3/analyse=0x3:0x133/me=umh/subme=11/psy=1/fade_compensate=0.00/psy_rd=1.05:0.00/mixed_ref=1/me_range=24/chroma_me=1/trellis=2/8x8dct=1/cqm=0/deadzone=21,11/fast_pskip=0/chroma_qp_offset=-2/threads=24/lookahead_threads=4/sliced_threads=0/nr=0/decimate=0/interlaced=0/bluray_compat=0/constrained_intra=0/fgo=0/bframes=8/b_pyramid=2/b_adapt=2/b_bias=0/direct=3/weightb=1/open_gop=0/weightp=2/keyint=250/keyint_min=23/scenecut=40/intra_refresh=0/rc=crf/mbtree=0/crf=17.0000/qcomp=0.65/qpmin=0/qpmax=69/qpstep=4/ip_ratio=1.20/pb_ratio=1.10/aq=3:0.90
    Language : English
    Default : No
    Forced : No
    DURATION : 01:33:08.542000000
    NUMBER_OF_FRAMES : 133991
    NUMBER_OF_BYTES : 5218134136
    _STATISTICS_WRITING_APP : mkvmerge v7.3.0 (;Nouages;) 64bit built on Oct 22 2014 18:53:34
    _STATISTICS_WRITING_DATE_UTC : 2014-11-19 08:45:27
    _STATISTICS_TAGS : BPS DURATION NUMBER_OF_FRAMES NUMBER_OF_BYTES
    Audio #2
    ID : 2
    Format : AC-3
    Format/Info : Audio Coding 3
    Mode extension : CM (complete main)
    Format settings, Endianness : Big
    Codec ID : A_AC3
    Duration : 1h 33mn
    Bit rate mode : Constant
    Bit rate : 384 Kbps
    Channel(s) : 6 channels
    Channel positions : Front: L C R, Side: L R, LFE
    Sampling rate : 48.0 KHz
    Bit depth : 16 bits
    Compression mode : Lossy
    Stream size : 256 MiB (4%)
    Title : AC3 5.1 @ 384 kbps - Dub, iTunes Russia
    Language : Russian
    Default : Yes
    Forced : No
    Audio #3
    ID : 3
    Format : DTS
    Format/Info : Digital Theater Systems
    Mode : 16
    Format settings, Endianness : Big
    Codec ID : A_DTS
    Duration : 1h 33mn
    Bit rate mode : Constant
    Bit rate : 1 509 Kbps
    Channel(s) : 6 channels
    Channel positions : Front: L C R, Side: L R, LFE
    Sampling rate : 48.0 KHz
    Bit depth : 24 bits
    Compression mode : Lossy
    Delay relative to video : 11ms
    Stream size : 1 005 MiB (16%)
    Title : DTS 5.1 @ 1509 kbps
    Language : English
    Default : No
    Forced : No
    Text #4
    ID : 4
    Format : UTF-8
    Codec ID : S_TEXT/UTF8
    Codec ID/Info : UTF-8 Plain Text
    Language : English
    Default : No
    Forced : No
    Text #5
    ID : 5
    Format : UTF-8
    Codec ID : S_TEXT/UTF8
    Codec ID/Info : UTF-8 Plain Text
    Title : SDH
    Language : English
    Default : No
    Forced : No
    Скриншоты для ознакомления

    Релиз:
    Размер скачиваемого торрента: 6.09 GB (6542318274 Bytes)

    Париж: Город мёртвых/As Above, So Below (2014) BDRip 720p от KinoRay | iTunes скачать через торрент бесплатно
    загрузка...
    Рейтинг →
     (голосов: 1, оценка 5/5, голосовать можно 1 раз )

    Другие торренты по теме:

  • Париж: Город мертвых (2014) HDRip скачать через торрент бесплатно
  • Париж: Город мёртвых / As Above, So Below торрент скачать бесплатно
  • Париж: Город мёртвых / As Above, So Below (2014) BDRip 720p от KinoRay | Чистый звук скачать через торрент бесплатно
  • Париж: Город мёртвых / As Above, So Below (2014) HDRip от Scarabey | D | iTunes торрент скачать бесплатно
  • Париж: Город мёртвых / As Above, So Below (2014) BDRip 720p от Leonardo and Scarabey | iTunes скачать через торрент бесплатно


    • Комментарии (0):

      Информация

      Информация

        Посетители, находящиеся в группе Гости, не могут оставлять комментарии в данной новости.

        ↓ Меню



        ↓ Опрос

        А Вы добавили сайт в закладки?
        Да
        Не


        Top 10 за неделю (Фильмы)