.
Авторизация | Регистрация
Хочешь лучшие торренты? Добавь свой email!
Добавить
» » Добро пожаловать в ПОП / Pop Redemption (2013) HDRip-AVC от New-Team | P | лицензия скачать через торрент бесплатно




    Добро пожаловать в ПОП / Pop Redemption (2013) HDRip-AVC от New-Team | P | лицензия скачать через торрент бесплатно

    Опубликовал: Админ | Дата: 27-02-2015, 11:10 | Просмотров: 151


    Снималось в: Франция/22h22, A Plus Image 4, Avalon, Canal+ fr, Centre National de la Cin?matographie (CNC), Cin?, Gaumont, Jouror Distribution, R?gion Aquitaine, R?gion Midi-Pyr?n?es
    Категория жанра: комедия, музыка
    Создали в: 2013
    Время просмотра: 01:34:32
    Перевод текста:Профессиональный (многоголосый закадровый)
    Субтитры подготовлены: английский
    Оригинальная аудиодорожка: французский
    Главный режиссер: Мартин Ле Галь/Martin Le Gall
    Актеры: Жюльен Доре, Грегори Гадебуа, Джонатан Коэн, Ясин Белусс, Одри Флеро, Александр Астье, Делия Эпина-Диэф, Арсен Моска, Кристоф Курочкин, Винсент Ленардт...
    Сюжет: Рокеров со стажем, играющих в стиле блэк-металл, приглашают принять участие в крупном рок-фестивале, проходящем во Франции. Не то чтобы их группа была очень популярной, просто во всей Франции металлистов раз, два и обчелся. Парни решают воспользоваться шансом и тряхнуть стариной. Но в дороге с ним происходит казус — по нелепой случайности в аварии погибает человек. Парни уверены, что теперь им светит тюрьма. Они решают скрыться от полиции, чтобы успеть выступить на фестивале своей мечты. Однако туда еще надо добраться. Для этого им придется отложить в стороны свои рокерские прикиды и резко сменить имидж, выдавая себя за группу хиппи, поющих про любовь и мир во всем мире. А это для брутальных рокеров будет сделать ой как не просто!

    Качество фильма: HDRip-AVC /DVD5 R5 - лицензионный диск от CD Land+ Pop.Redemption.2013.720p.BluRay.DD5.1.x264-EbP
    Тип видео: MKV
    Информация о видео: 1024x428 (2.39:1), MPEG-4 AVC, 2396 kbps/24,000 fps/bit/pix=0.228
    Информация о звуке 1: Russian: 48 kHz, AC3, 3/2 (L,C,R,l,r) + LFE ch, 448.00 kbps constant
    Информация о звуке 2: French: 48 kHz, AC3, 3/2 (L,C,R,l,r) + LFE ch, 448.00 kbps constant
    Тип видео субтитров: SoftSub (srt)
    Дополнительно: Фильм разбит на главы, как на оригинальном Blu-ray диске.
    Раздача от:
    MediaInfo

    General
    Format : Matroska
    Format version : Version 4/Version 2
    File size : 2.17 GiB
    Duration : 1h 34mn
    Overall bit rate : 3 292 Kbps
    Encoded date : UTC 2014-11-26 16:25:36
    Writing application : mkvmerge v7.2.0 (;On Every Street;) 64bit built on Sep 13 2014 15:52:10
    Writing library : libebml v1.3.0 + libmatroska v1.4.1
    _STATISTICS_WRITING_APP : mkvmerge v7.2.0 (;On Every Street;) 64bit built on Sep 13 2014 15:52:10
    _STATISTICS_WRITING_DATE_UTC : 2014-11-26 16:25:36
    _STATISTICS_TAGS : BPS DURATION NUMBER_OF_FRAMES NUMBER_OF_BYTES
    DURATION : 01:32:56.124000000
    NUMBER_OF_FRAMES : 1030
    NUMBER_OF_BYTES : 26547
    Video
    ID : 1
    Format : AVC
    Format/Info : Advanced Video Codec
    Format profile : High@L4.1
    Format settings, CABAC : Yes
    Format settings, ReFrames : 8 frames
    Codec ID : V_MPEG4/ISO/AVC
    Duration : 1h 34mn
    Bit rate : 2 396 Kbps
    Width : 1 024 pixels
    Height : 428 pixels
    Display aspect ratio : 2.40:1
    Frame rate mode : Constant
    Frame rate : 24.000 fps
    Color space : YUV
    Chroma subsampling : 4:2:0
    Bit depth : 8 bits
    Scan type : Progressive
    Bits/(Pixel*Frame) : 0.228
    Stream size : 1.54 GiB (71%)
    Writing library : x264 core 138 r2356 a1d3d17
    Encoding settings : cabac=1/ref=8/deblock=1:-3:-2/analyse=0x3:0x113/me=umh/subme=10/psy=1/psy_rd=1.00:0.05/mixed_ref=1/me_range=32/chroma_me=1/trellis=2/8x8dct=1/cqm=0/deadzone=21,11/fast_pskip=0/chroma_qp_offset=-3/threads=6/lookahead_threads=1/sliced_threads=0/nr=0/decimate=0/interlaced=0/bluray_compat=0/constrained_intra=0/bframes=8/b_pyramid=2/b_adapt=2/b_bias=0/direct=3/weightb=1/open_gop=0/weightp=2/keyint=240/keyint_min=24/scenecut=40/intra_refresh=0/rc_lookahead=40/rc=2pass/mbtree=1/bitrate=2396/ratetol=1.0/qcomp=0.60/qpmin=0/qpmax=69/qpstep=4/cplxblur=20.0/qblur=0.5/ip_ratio=1.40/aq=1:1.00
    Language : French
    Default : Yes
    Forced : No
    _STATISTICS_WRITING_APP : mkvmerge v7.2.0 (;On Every Street;) 64bit built on Sep 13 2014 15:52:10
    _STATISTICS_WRITING_DATE_UTC : 2014-11-26 16:25:36
    _STATISTICS_TAGS : BPS DURATION NUMBER_OF_FRAMES NUMBER_OF_BYTES
    DURATION : 01:34:32.047000000
    NUMBER_OF_FRAMES : 136129
    NUMBER_OF_BYTES : 1697248213
    Audio #1
    ID : 2
    Format : AC-3
    Format/Info : Audio Coding 3
    Mode extension : CM (complete main)
    Format settings, Endianness : Big
    Codec ID : A_AC3
    Duration : 1h 34mn
    Bit rate mode : Constant
    Bit rate : 448 Kbps
    Channel(s) : 6 channels
    Channel positions : Front: L C R, Side: L R, LFE
    Sampling rate : 48.0 KHz
    Bit depth : 16 bits
    Compression mode : Lossy
    Stream size : 303 MiB (14%)
    Language : Russian
    Default : Yes
    Forced : No
    Audio #2
    ID : 3
    Format : AC-3
    Format/Info : Audio Coding 3
    Mode extension : CM (complete main)
    Format settings, Endianness : Big
    Codec ID : A_AC3
    Duration : 1h 34mn
    Bit rate mode : Constant
    Bit rate : 448 Kbps
    Channel(s) : 6 channels
    Channel positions : Front: L C R, Side: L R, LFE
    Sampling rate : 48.0 KHz
    Bit depth : 16 bits
    Compression mode : Lossy
    Stream size : 303 MiB (14%)
    Language : French
    Default : No
    Forced : No
    Text
    ID : 4
    Format : UTF-8
    Codec ID : S_TEXT/UTF8
    Codec ID/Info : UTF-8 Plain Text
    Language : English
    Default : No
    Forced : No
    Menu
    00:00:00.000 : en:00:00:00.000
    00:07:15.250 : en:00:07:15.250
    00:14:21.292 : en:00:14:21.292
    00:23:43.167 : en:00:23:43.167
    00:32:37.500 : en:00:32:37.500
    00:41:20.875 : en:00:41:20.875
    00:51:55.250 : en:00:51:55.250
    00:57:52.875 : en:00:57:52.875
    01:07:35.667 : en:01:07:35.667
    01:14:58.667 : en:01:14:58.667
    01:20:52.208 : en:01:20:52.208
    01:27:48.167 : en:01:27:48.167

    Скриншоты для ознакомления:



    Размер скачиваемого торрента: 2.17 GB (2334016153 Bytes)

    Добро пожаловать в ПОП/Pop Redemption (2013) HDRip-AVC от New-Team | P | лицензия скачать через торрент бесплатно
    загрузка...
    Рейтинг →
     (голосов: 1, оценка 4/5, голосовать можно 1 раз )

    Другие торренты по теме:

  • Добро пожаловать в капкан / Добро пожаловать в Панч / Welcome to the Punch (2013) BDRip от HQCLUB
  • Добро пожаловать в капкан / Добро пожаловать в Панч / Welcome to the Punch (2013) BDRip от HQCLUB | Лицензия
  • Добро пожаловать в рай / Into the Blue (2005) BDRip 1080p от FfClub
  • Добро пожаловать в Музпорт / Welcome to Mooseport (2004) HDTVRip 720p от Youtracker | P, L2
  • Добро пожаловать в Лэйквью! / Lakeview Terrace (2008) BDRip от HQ-ViDEO
  • Добро пожаловать в рай! / Into the Blue (2005) BDRip 1080p | D, P2, A
  • Добро пожаловать в Лос-Анджелес / Welcome to L.A. (1976) DVDRip-AVC от Temperest
  • Добро пожаловать в Лэйквью / Lakeview Terrace (2008) BDRip-AVC от ExKinoRay


    • Комментарии (0):

      Информация

      Информация

        Посетители, находящиеся в группе Гости, не могут оставлять комментарии в данной новости.

        ↓ Меню



        ↓ Опрос

        А Вы добавили сайт в закладки?
        Да
        Не


        Top 10 за месяц (Фильмы)