.
Авторизация | Регистрация
Хочешь лучшие торренты? Добавь свой email!
Добавить
» » Добро пожаловать в ПОП / Pop Redemption (2013) HDRip от New-Team | P | лицензия скачать через торрент бесплатно




    Добро пожаловать в ПОП / Pop Redemption (2013) HDRip от New-Team | P | лицензия скачать через торрент бесплатно

    Опубликовал: Админ | Дата: 27-02-2015, 11:10 | Просмотров: 138


    Снималось в: Франция/22h22, A Plus Image 4, Avalon, Canal+ fr, Centre National de la Cin?matographie (CNC), Cin?, Gaumont, Jouror Distribution, R?gion Aquitaine, R?gion Midi-Pyr?n?es
    Категория жанра: комедия, музыка
    Создали в: 2013
    Время просмотра: 01:34:32
    Перевод текста:Профессиональный (многоголосый закадровый)
    Субтитры подготовлены: нет
    Оригинальная аудиодорожка: нет
    Главный режиссер: Мартин Ле Галь/Martin Le Gall
    Актеры: Жюльен Доре, Грегори Гадебуа, Джонатан Коэн, Ясин Белусс, Одри Флеро, Александр Астье, Делия Эпина-Диэф, Арсен Моска, Кристоф Курочкин, Винсент Ленардт...
    Сюжет: Рокеров со стажем, играющих в стиле блэк-металл, приглашают принять участие в крупном рок-фестивале, проходящем во Франции. Не то чтобы их группа была очень популярной, просто во всей Франции металлистов раз, два и обчелся. Парни решают воспользоваться шансом и тряхнуть стариной. Но в дороге с ним происходит казус — по нелепой случайности в аварии погибает человек. Парни уверены, что теперь им светит тюрьма. Они решают скрыться от полиции, чтобы успеть выступить на фестивале своей мечты. Однако туда еще надо добраться. Для этого им придется отложить в стороны свои рокерские прикиды и резко сменить имидж, выдавая себя за группу хиппи, поющих про любовь и мир во всем мире. А это для брутальных рокеров будет сделать ой как не просто!

    Качество фильма: HDRip /DVD5 R5 - лицензионный диск от CD Land+ Pop.Redemption.2013.720p.BluRay.DD5.1.x264-EbP
    Тип видео: AVI
    Информация о видео: 720x304 (2.39:1), XViD, 1749 kbps/24,000 fps/bit/pix=0.333
    Информация о звуке: Russian: 48 kHz, AC3, 3/2 (L,C,R,l,r) + LFE ch, 448.00 kbps constant
    Раздача от:
    MediaInfo

    General
    Format : AVI
    Format/Info : Audio Video Interleave
    File size : 1.46 GiB
    Duration : 1h 34mn
    Overall bit rate : 2 207 Kbps
    Writing application : VirtualDubModRus 1.5.10.2 (build 2542/release)
    Writing library : VirtualDubMod build 2542/release
    Video
    ID : 0
    Format : MPEG-4 Visual
    Format profile : Advanced Simple@L5
    Format settings, BVOP : 1
    Format settings, QPel : No
    Format settings, GMC : No warppoints
    Format settings, Matrix : Custom
    Codec ID : XVID
    Codec ID/Hint : XviD
    Duration : 1h 34mn
    Bit rate : 1 749 Kbps
    Width : 720 pixels
    Height : 304 pixels
    Display aspect ratio : 2.35:1
    Frame rate : 24.000 fps
    Color space : YUV
    Chroma subsampling : 4:2:0
    Bit depth : 8 bits
    Scan type : Progressive
    Compression mode : Lossy
    Bits/(Pixel*Frame) : 0.333
    Stream size : 1.16 GiB (79%)
    Writing library : XviD 73
    Audio
    ID : 1
    Format : AC-3
    Format/Info : Audio Coding 3
    Mode extension : CM (complete main)
    Format settings, Endianness : Big
    Codec ID : 2000
    Duration : 1h 34mn
    Bit rate mode : Constant
    Bit rate : 448 Kbps
    Channel(s) : 6 channels
    Channel positions : Front: L C R, Side: L R, LFE
    Sampling rate : 48.0 KHz
    Bit depth : 16 bits
    Compression mode : Lossy
    Stream size : 303 MiB (20%)
    Alignment : Split accross interleaves
    Interleave, duration : 42 ms (1.00 video frame)
    Interleave, preload duration : 500 ms

    Скриншоты для ознакомления:



    Размер скачиваемого торрента: 1.46 GB (1564631040 Bytes)

    Добро пожаловать в ПОП/Pop Redemption (2013) HDRip от New-Team | P | лицензия скачать через торрент бесплатно
    загрузка...
    Рейтинг →
     (голосов: 1, оценка 3/5, голосовать можно 1 раз )

    Другие торренты по теме:

  • Добро пожаловать в капкан / Добро пожаловать в Панч / Welcome to the Punch (2013) BDRip от HQCLUB
  • Добро пожаловать в капкан / Добро пожаловать в Панч / Welcome to the Punch (2013) BDRip от HQCLUB | Лицензия
  • Добро пожаловать в рай / Into the Blue (2005) BDRip 1080p от FfClub
  • Добро пожаловать в Музпорт / Welcome to Mooseport (2004) HDTVRip 720p от Youtracker | P, L2
  • Добро пожаловать в Лэйквью! / Lakeview Terrace (2008) BDRip от HQ-ViDEO
  • Добро пожаловать в рай! / Into the Blue (2005) BDRip 1080p | D, P2, A
  • Добро пожаловать в Лос-Анджелес / Welcome to L.A. (1976) DVDRip-AVC от Temperest
  • Добро пожаловать в Лэйквью / Lakeview Terrace (2008) BDRip-AVC от ExKinoRay


    • Комментарии (0):

      Информация

      Информация

        Посетители, находящиеся в группе Гости, не могут оставлять комментарии в данной новости.

        ↓ Меню



        ↓ Опрос

        А Вы добавили сайт в закладки?
        Да
        Не


        Top 10 за месяц (Фильмы)