.
Авторизация | Регистрация
» » Торжественный финал / Grand Piano (2013) BDRip 720p от New-Team | P | лицензия торрент скачать бесплатно




    Торжественный финал / Grand Piano (2013) BDRip 720p от New-Team | P | лицензия торрент скачать бесплатно

    Опубликовал: Админ | Дата: 27-02-2015, 11:10 | Просмотров: 193

    Play or Die

    Снималось в: Испания, США/Antena 3 Televisi?n, Atresmedia TelevisiГіn, Grand Piano Productions, Nostromo Canarias 1 AIE, Nostromo Pictures, Solution, Entertainment Group, Telef?nica Producciones, Televisi? de Catalunya (TV3)
    Категория жанра: триллер, детектив
    Создали в: 2013
    Время просмотра: 01:30:01
    Перевод текста:Профессиональный (многоголосый закадровый)
    Субтитры подготовлены: русский, английский
    Оригинальная аудиодорожка: английский
    Главный режиссер: Эухенио Мира/Eugenio Mira
    Актеры: Элайджа Вуд, Джон Кьюсак, Керри Бише, Тэмзин Эджертон, Аллен Лич, Дон МакМанус, Алекс Уинтер, Ди Уоллес-Стоун, Джим Арнольд, Джек Тейлор...
    Сюжет: История знаменитого пианиста, который на много лет оказывается отлученным от концертной деятельности из-за патологической боязни сцены. Когда же, наконец, ему удается преодолеть свой страх и выступить перед публикой, он вдруг узнает, что попал в смертельную ловушку. На выбор ему уготованы только два варианта — либо продолжать мастерски играть, либо погибнуть вместе с женой от рук загадочного безумца.

    Качество фильма: HDRip-AVC /DVD9 R5 - лицензионный диск от Paradise+ Grand.Piano.2013.720p.BluRay.Rus.Eng.x264.KinoRay.mkv
    Тип видео: MKV
    Информация о видео: 1280x534 (2.41:1), MPEG-4 AVC, 7487 kbps/24,000 fps/bit/pix=0.456
    Информация о звуке 1: Russian: 48 kHz, AC3, 3/2 (L,C,R,l,r) + LFE ch, 384.00 kbps constant
    Информация о звуке 2: English: 48 kHz, AC3, 3/2 (L,C,R,l,r) + LFE ch, 640.00 kbps constant
    Тип видео субтитров: SoftSub (srt)
    Дополнительно: Фильм разбит на главы, как на оригинальном Blu-ray диске.
    Раздача от:
    MediaInfo

    General
    Format : Matroska
    Format version : Version 4/Version 2
    File size : 5.46 GiB
    Duration : 1h 30mn
    Overall bit rate : 8 684 Kbps
    Encoded date : UTC 2014-11-29 10:05:40
    Writing application : mkvmerge v7.2.0 (;On Every Street;) 64bit built on Sep 13 2014 15:52:10
    Writing library : libebml v1.3.0 + libmatroska v1.4.1
    DURATION : 01:12:58.006000000
    NUMBER_OF_FRAMES : 864
    NUMBER_OF_BYTES : 62181
    _STATISTICS_WRITING_APP : mkvmerge v7.2.0 (;On Every Street;) 64bit built on Sep 13 2014 15:52:10
    _STATISTICS_WRITING_DATE_UTC : 2014-11-29 10:05:40
    _STATISTICS_TAGS : BPS DURATION NUMBER_OF_FRAMES NUMBER_OF_BYTES
    Video
    ID : 1
    Format : AVC
    Format/Info : Advanced Video Codec
    Format profile : High@L4.1
    Format settings, CABAC : Yes
    Format settings, ReFrames : 12 frames
    Codec ID : V_MPEG4/ISO/AVC
    Duration : 1h 30mn
    Bit rate : 7 487 Kbps
    Width : 1 280 pixels
    Height : 534 pixels
    Display aspect ratio : 2.40:1
    Frame rate mode : Constant
    Frame rate : 24.000 fps
    Color space : YUV
    Chroma subsampling : 4:2:0
    Bit depth : 8 bits
    Scan type : Progressive
    Bits/(Pixel*Frame) : 0.456
    Stream size : 4.71 GiB (86%)
    Writing library : x264 core 142 r2431kMod ac76440
    Encoding settings : cabac=1/ref=12/deblock=1:-3:-3/analyse=0x3:0x133/me=umh/subme=11/psy=1/fade_compensate=0.00/psy_rd=1.05:0.00/mixed_ref=1/me_range=32/chroma_me=1/trellis=2/8x8dct=1/cqm=0/deadzone=21,11/fast_pskip=0/chroma_qp_offset=-2/threads=24/lookahead_threads=4/sliced_threads=0/nr=0/decimate=0/interlaced=0/bluray_compat=0/constrained_intra=0/fgo=0/bframes=12/b_pyramid=2/b_adapt=2/b_bias=0/direct=3/weightb=1/open_gop=0/weightp=2/keyint=250/keyint_min=24/scenecut=40/intra_refresh=0/rc=crf/mbtree=0/crf=15.3000/qcomp=0.65/qpmin=0/qpmax=69/qpstep=4/ip_ratio=1.40/pb_ratio=1.15/aq=1:0.68
    Language : English
    Default : Yes
    Forced : No
    DURATION : 01:30:01.417000000
    NUMBER_OF_FRAMES : 129634
    NUMBER_OF_BYTES : 5170297050
    _STATISTICS_WRITING_APP : mkvmerge v7.2.0 (;On Every Street;) 64bit built on Sep 13 2014 15:52:10
    _STATISTICS_WRITING_DATE_UTC : 2014-11-29 10:05:40
    _STATISTICS_TAGS : BPS DURATION NUMBER_OF_FRAMES NUMBER_OF_BYTES
    Audio #1
    ID : 2
    Format : AC-3
    Format/Info : Audio Coding 3
    Mode extension : CM (complete main)
    Format settings, Endianness : Big
    Codec ID : A_AC3
    Duration : 1h 30mn
    Bit rate mode : Constant
    Bit rate : 384 Kbps
    Channel(s) : 6 channels
    Channel positions : Front: L C R, Side: L R, LFE
    Sampling rate : 48.0 KHz
    Bit depth : 16 bits
    Compression mode : Lossy
    Stream size : 247 MiB (4%)
    Language : Russian
    Default : Yes
    Forced : No
    Audio #2
    ID : 3
    Format : AC-3
    Format/Info : Audio Coding 3
    Mode extension : CM (complete main)
    Format settings, Endianness : Big
    Codec ID : A_AC3
    Duration : 1h 30mn
    Bit rate mode : Constant
    Bit rate : 640 Kbps
    Channel(s) : 6 channels
    Channel positions : Front: L C R, Side: L R, LFE
    Sampling rate : 48.0 KHz
    Bit depth : 16 bits
    Compression mode : Lossy
    Stream size : 412 MiB (7%)
    Language : English
    Default : No
    Forced : No
    Text #1
    ID : 4
    Format : UTF-8
    Codec ID : S_TEXT/UTF8
    Codec ID/Info : UTF-8 Plain Text
    Language : Russian
    Default : No
    Forced : No
    Text #2
    ID : 5
    Format : UTF-8
    Codec ID : S_TEXT/UTF8
    Codec ID/Info : UTF-8 Plain Text
    Title : SDH
    Language : English
    Default : No
    Forced : No
    Menu
    00:00:00.000 : en:Chapter 01
    00:12:50.292 : en:Chapter 02
    00:22:25.250 : en:Chapter 03
    00:30:39.625 : en:Chapter 04
    00:48:34.750 : en:Chapter 05
    00:58:50.875 : en:Chapter 06
    01:07:17.500 : en:Chapter 07
    01:13:36.292 : en:Chapter 08

    Скриншоты для ознакомления:



    Размер скачиваемого торрента: 5.46 GB (5863331131 Bytes)

    Торжественный финал/Grand Piano (2013) BDRip 720p от New-Team | P | лицензия торрент скачать бесплатно
    загрузка...
    Рейтинг →
     (голосов: 1, оценка 4/5, голосовать можно 1 раз )

    Другие торренты по теме:

  • Торжественный финал / Grand Piano (2013) WEB-DL 720p | L1 скачать через торрент бесплатно
  • Торжественный финал / Grand Piano (2013) WEB-DLRip | L1 скачать через торрент бесплатно
  • Торжественный финал / Grand Piano (2013) WEB-DLRip от Scarabey | Andi скачать через торрент бесплатно
  • Торжественный финал / Grand Piano (2013) HDRip от CINEMANIA | L2 скачать через торрент бесплатно
  • Торжественный финал / Grand Piano (2013) BDRip 720p от CINEMANIA | L2 скачать через торрент бесплатно
  • Торжественный финал / Grand Piano (2013) BDRip 1080p от CINEMANIA | L2 скачать через торрент бесплатно
  • Торжественный финал / Grand Piano скачать через торрент бесплатно
  • Торжественный финал / Grand Piano (2013) BDRip от HQCLUB | Лицензия торрент скачать бесплатно


    • Комментарии (0):

      Информация

      Информация

        Посетители, находящиеся в группе Гости, не могут оставлять комментарии в данной новости.

        ↓ Меню



        ↓ Опрос

        А Вы добавили сайт в закладки?
        Да
        Не


        Top 10 за неделю (Фильмы)