.
Авторизация | Регистрация
» » Боевик Джексон / Action Jackson (1988) BDRip 720p скачать через торрент бесплатно




    Боевик Джексон / Action Jackson (1988) BDRip 720p скачать через торрент бесплатно

    Опубликовал: Админ | Дата: 27-02-2015, 11:10 | Просмотров: 226

    Боевик Джексон/Action Jackson (1988) BDRip
    Создали в:1988
    Создали в:USA/Lorimar Film Entertainment, Silver Pictures
    Категория жанра:боевик, триллер, комедия, криминал
    Главный режиссер:Крэйг Р. Бэксли
    Актеры:Карл Уэзерс, Крэйг Т. Нельсон, Вэнити, Шэрон Стоун, Томас Ф. Уилсон, Билл Дьюк, Роберт Дави, Джек Тибо, Роджер Аарон Браун, Стэн Фостер
    Сюжет фильма:Сержант полиции Джексон, по прозвищу Боевик, бросает вызов жестоким убийцам, состоящим на службе у безжалостного автомагната, который рассчитывает путем убийств расчистить себе дорогу к политической власти.
    Преследуемый своими же коллегами-полицейскими по сфабрикованному обвинению, Джексон предпринимает отчаянную попытку разоблачения…
    Перевод текста:профессиональный (полное дублирование), профессиональный (многоголосый закадровый), авторский (одноголосый закадровый)
    Вид субтитров:вшитые отключаемые
    Язык субтитров:английские (SDH)

    Время просмотра:01:35:58
    Качество фильма:BDRip (720p)
    Информация о видео:MPEG-4 AVC/H.264, 1272 x 720 (16:9), 10 600 kbps, 23.976 fps, 0.480 b/px
    Информация о звуке # 1:АС3, 2 ch, 192 kbps, 48 000 Hz дублированный
    Информация о звуке # 2:АС3, 2 ch, 192 kbps, 48 000 Hz многоголосый закадровый (ВГТРК)
    Информация о звуке # 3:DTS, 2 ch, 1509 kbps, 48 000 Hz одноголосый закадровый (А.Михалев)
    Информация о звуке # 4:DTS, 2 ch, 1509 kbps, 48 000 Hz оригинальный
    MediaInfo
    Общее
    Уникальный идентификатор : 232721857066653645846447170211861451289 (0xAF14996D48F8B70EBCBF10DF12BB5219)
    Полное имя : E:Video1988 Боевик Джексон BDRip 720p.mkv
    Формат : Matroska
    Версия формата : Version 4/Version 2
    Размер файла : 9,35 Гбайт
    Продолжительность : 1 ч. 35 м.
    Общий поток : 13,9 Мбит/сек
    Название фильма : Боевик Джексон/Action Jackson (1988) BDRip 720p
    Дата кодирования : UTC 2014-12-02 13:18:37
    Программа кодирования : mkvmerge v7.2.0 (;On Every Street;) 32bit built on Sep 13 2014 15:42:11
    Библиотека кодирования : libebml v1.3.0 + libmatroska v1.4.1
    DURATION : 01:35:36.898000000
    NUMBER_OF_FRAMES : 1317
    NUMBER_OF_BYTES : 45178
    _STATISTICS_WRITING_APP : mkvmerge v7.2.0 (;On Every Street;) 32bit built on Sep 13 2014 15:42:11
    _STATISTICS_WRITING_DATE_UTC : 2014-12-02 13:18:37
    _STATISTICS_TAGS : BPS DURATION NUMBER_OF_FRAMES NUMBER_OF_BYTES
    Видео
    Идентификатор : 1
    Формат : AVC
    Формат/Информация : Advanced Video Codec
    Профиль формата : High@L4.1
    Параметр CABAC формата : Да
    Параметр ReFrames формата : 9 кадров
    Идентификатор кодека : V_MPEG4/ISO/AVC
    Продолжительность : 1 ч. 35 м.
    Битрейт : 10,6 Мбит/сек
    Ширина : 1272 пикселя
    Высота : 720 пикселей
    Соотношение сторон : 16:9
    Режим частоты кадров : Постоянный
    Частота кадров : 23,976 кадра/сек
    Цветовое пространство : YUV
    Субдискретизация насыщенности : 4:2:0
    Битовая глубина : 8 бит
    Тип развёртки : Прогрессивная
    Бит/(Пиксели*Кадры) : 0.480
    Размер потока : 6,88 Гбайт (74%)
    Заголовок : 1988 Боевик Джексон/Action Jackson BDRip 720p
    Библиотека кодирования : x264 core 138 r2359+704+48 3f879a0 tMod 8-bit@all X86_64
    Настройки программы : cabac=1/ref=9/deblock=1:-3:-3/analyse=0x3:0x113/me=umh/subme=11/psy=1/fade_compensate=0.00/psy_rd=1.00:0.02/mixed_ref=1/me_range=24/chroma_me=1/trellis=2/8x8dct=1/cqm=0/deadzone=21,11/fast_pskip=0/chroma_qp_offset=-3/threads=6/lookahead_threads=1/sliced_threads=0/nr=0/decimate=1/interlaced=0/bluray_compat=0/constrained_intra=0/fgo=0/bframes=11/b_pyramid=2/b_adapt=2/b_bias=0/direct=3/weightb=1/open_gop=0/weightp=2/keyint=250/keyint_min=23/scenecut=40/intra_refresh=0/rc_lookahead=120/rc=2pass/mbtree=0/bitrate=10550/ratetol=1.0/qcomp=0.70/qpmin=0:0:0/qpmax=69:69:69/qpstep=4/cplxblur=20.0/qblur=0.5/vbv_maxrate=50000/vbv_bufsize=62500/nal_hrd=none/ip_ratio=1.40/pb_ratio=1.30/aq=4:0.85/aq-sensitivity=10.00/aq-factor=1.00:1.00:1.00/aq2=0/aq3=0
    Язык : English
    Default : Да
    Forced : Нет
    Коэффициенты матрицы : BT.709
    colour_range : Limited
    DURATION : 01:35:58.003000000
    NUMBER_OF_FRAMES : 138054
    NUMBER_OF_BYTES : 7587041733
    _STATISTICS_WRITING_APP : mkvmerge v7.2.0 (;On Every Street;) 32bit built on Sep 13 2014 15:42:11
    _STATISTICS_WRITING_DATE_UTC : 2014-12-02 13:18:37
    _STATISTICS_TAGS : BPS DURATION NUMBER_OF_FRAMES NUMBER_OF_BYTES
    Аудио #1
    Идентификатор : 2
    Формат : AC-3
    Формат/Информация : Audio Coding 3
    Расширение режима : CM (complete main)
    Параметр Endianness формата : Big
    Идентификатор кодека : A_AC3
    Продолжительность : 1 ч. 35 м.
    Вид битрейта : Постоянный
    Битрейт : 192 Кбит/сек
    Каналы : 2 канала
    Расположение каналов : Front: L R
    Частота : 48,0 КГц
    Битовая глубина : 16 бит
    Метод сжатия : С потерями
    Размер потока : 132 Мбайт (1%)
    Заголовок : Дублированный
    Язык : Russian
    Default : Да
    Forced : Нет
    Аудио #2
    Идентификатор : 3
    Формат : AC-3
    Формат/Информация : Audio Coding 3
    Расширение режима : CM (complete main)
    Параметр Endianness формата : Big
    Идентификатор кодека : A_AC3
    Продолжительность : 1 ч. 35 м.
    Вид битрейта : Постоянный
    Битрейт : 192 Кбит/сек
    Каналы : 2 канала
    Расположение каналов : Front: L R
    Частота : 48,0 КГц
    Битовая глубина : 16 бит
    Метод сжатия : С потерями
    Размер потока : 132 Мбайт (1%)
    Заголовок : Многоголосый закадровый (ВГТРК)
    Язык : Russian
    Default : Нет
    Forced : Нет
    Аудио #3
    Идентификатор : 4
    Формат : DTS
    Формат/Информация : Digital Theater Systems
    Режим : 16
    Параметр Endianness формата : Big
    Идентификатор кодека : A_DTS
    Продолжительность : 1 ч. 35 м.
    Вид битрейта : Постоянный
    Битрейт : 1509 Кбит/сек
    Каналы : 2 канала
    Расположение каналов : Front: L R
    Частота : 48,0 КГц
    Битовая глубина : 24 бит
    Метод сжатия : С потерями
    Размер потока : 1,01 Гбайт (11%)
    Заголовок : Одноголосый закадровый (А.Михалев)
    Язык : Russian
    Default : Нет
    Forced : Нет
    Аудио #4
    Идентификатор : 5
    Формат : DTS
    Формат/Информация : Digital Theater Systems
    Режим : 16
    Параметр Endianness формата : Big
    Идентификатор кодека : A_DTS
    Продолжительность : 1 ч. 35 м.
    Вид битрейта : Постоянный
    Битрейт : 1509 Кбит/сек
    Каналы : 2 канала
    Расположение каналов : Front: L R
    Частота : 48,0 КГц
    Битовая глубина : 24 бит
    Метод сжатия : С потерями
    Размер потока : 1,01 Гбайт (11%)
    Заголовок : Оригинальный
    Язык : English
    Default : Нет
    Forced : Нет
    Текст
    Идентификатор : 6
    Формат : UTF-8
    Идентификатор кодека : S_TEXT/UTF8
    Идентификатор кодека/Информация : UTF-8 Plain Text
    Заголовок : English (SDH)
    Язык : English
    Default : Нет
    Forced : Нет
    Меню
    00:00:00.000 : en:00:00:00.000
    00:09:35.532 : en:00:09:35.532
    00:20:25.223 : en:00:20:25.223
    00:30:38.252 : en:00:30:38.252
    00:41:29.445 : en:00:41:29.445
    00:50:48.670 : en:00:50:48.670
    01:00:25.246 : en:01:00:25.246
    01:12:28.970 : en:01:12:28.970
    01:24:06.707 : en:01:24:06.707
    01:31:49.587 : en:01:31:49.587
    Скриншоты для ознакомления

    Размер скачиваемого торрента: 9.35 GB (10038882694 Bytes)

    Боевик Джексон/Action Jackson (1988) BDRip 720p скачать через торрент бесплатно
    загрузка...
    Рейтинг →
     (голосов: 1, оценка 3/5, голосовать можно 1 раз )

    Другие торренты по теме:

  • Боевик Джексон / Джексон по кличке Мотор / Action Jackson (1988) BDRip от HQCLUB скачать через торрент бесплатно
  • Боевик Джексон / Action Jackson (1988) BDRip-AVC | iPad | D скачать через торрент бесплатно
  • Боевик Джексон / Action Jackson скачать через торрент бесплатно
  • Боевик Джексон / Action Jackson (2014) WEB-DL 720p | L2 торрент скачать бесплатно
  • Боевик Джексон / Action Jackson (2014) WEB-DLRip | L2 торрент скачать бесплатно
  • Боевик Джексон (Джексон мотор) / Action Jackson / 1988 / ДБ, ПМ, АП (Михалев) / Blu-Ray (1080p) скачать торрент бесплатно
  • Боевик Джексон / Джексон мотор / Action Jackson (1988) BDRip-AVC от 0ptimus | D, P, A скачать торрент бесплатно


    • Комментарии (0):

      Информация

      Информация

        Посетители, находящиеся в группе Гости, не могут оставлять комментарии в данной новости.

        ↓ Меню



        ↓ Опрос

        А Вы добавили сайт в закладки?
        Да
        Не


        Top 10 за неделю (Фильмы)