.
Авторизация | Регистрация
» » День Зеро / Day Zero (2007) SATRip от MediaClub | P торрент скачать бесплатно




    День Зеро / Day Zero (2007) SATRip от MediaClub | P торрент скачать бесплатно

    Опубликовал: Админ | Дата: 27-02-2015, 11:10 | Просмотров: 163


    Детально о кино
    Русское название:День Зеро
    Русское название в мировом прокате:Day Zero
    Создали в:2007
    Категория жанра:Драма
    Главный режиссер:Брайан Гуннар Коул
    Актеры:Элайджа Вуд, Крис Клейн, Джон Бернтал, Джиннифер Гудвин, Элизабет Мосс, Элли Шиди, Софья Васильева, Джон Ротмен, Дэниэл Орескс, Тинаше Кайесе
    Сюжет фильма:
    Америка снова вернулась к призывной армии. Трое друзей — адвокат, таксист и писатель — в тридцатидневный срок должны явиться на службу. У каждого из них своя жизнь, но детские узы дружбы не ослабели. Рифкин — женат, работает адвокатом, его карьера идет в гору. Недавно его назначили партнером фирмы, поэтому он ищет любую лазейку для того, чтобы не идти в армию. Феллер пишет свой второй роман. Первый роман имел оглушительный успех, и повестка о призыве в армию мешает ему, вызывая творческое бессилие. Он решает составить список 10-ти вещей, которые ему нужно сделать до того, как он начнет служить в армии. Диксон работает таксистом, живет один и охотно готов служить в армии. Но неожиданно в его жизни происходят события, которые меняют его жизнь. В течение тридцати дней их дружба проходит испытание на прочность, также как их представления о жизни, смерти, отваге и любви.

    Снималось в:США
    Киностудия:Indalo Productions
    Время просмотра:01:28:52
    Перевод текста:Профессиональный многоголосый
    Файл
    Кодек для видео:XviD
    Качество фильма:SATRip
    Информация о видео:1991 Кбит/с, 720x400, 25.000 кадр/с
    Информация о звуке:Русский (АС3, 2 ch, 192 Кбит/с)
    Семпл
    Скриншоты для ознакомления

    MI
    Общее
    Полное имя : Den.Zero.2007.SATRip.MediaClub.avi
    Формат : AVI
    Формат/Информация : Audio Video Interleave
    Размер файла : 1,36 Гбайт
    Продолжительность : 1 ч. 28 м.
    Общий поток : 2192 Кбит/сек
    Название фильма : MediaClub
    Программа кодирования : VirtualDubMod 1.5.10.2 (build 2540/release)
    Библиотека кодирования : VirtualDubMod build 2540/release
    Видео
    Идентификатор : 0
    Формат : MPEG-4 Visual
    Профиль формата : Advanced Simple@L5
    Параметр BVOP формата : 2
    Параметр QPel формата : Нет
    Параметр GMC формата : Без точки перехода
    Параметр матрицы формата : Default (MPEG)
    Идентификатор кодека : XVID
    Идентификатор кодека/Подсказка : XviD
    Продолжительность : 1 ч. 28 м.
    Битрейт : 1991 Кбит/сек
    Ширина : 720 пикселей
    Высота : 400 пикселей
    Соотношение сторон : 16:9
    Частота кадров : 25,000 кадров/сек
    Цветовое пространство : YUV
    Субдискретизация насыщенности : 4:2:0
    Битовая глубина : 8 бит
    Тип развёртки : Прогрессивная
    Метод сжатия : С потерями
    Бит/(Пиксели*Кадры) : 0.276
    Размер потока : 1,24 Гбайт (91%)
    Библиотека кодирования : XviD 65
    Аудио
    Идентификатор : 1
    Формат : AC-3
    Формат/Информация : Audio Coding 3
    Расширение режима : CM (complete main)
    Параметр Endianness формата : Big
    Идентификатор кодека : 2000
    Продолжительность : 1 ч. 28 м.
    Вид битрейта : Постоянный
    Битрейт : 192 Кбит/сек
    Каналы : 2 канала
    Расположение каналов : Front: L R
    Частота : 48,0 КГц
    Битовая глубина : 16 бит
    Метод сжатия : С потерями
    Размер потока : 122 Мбайт (9%)
    Выравнивание : Разделение по промежуткам
    Продолжительность промежутка : 40 мс. (1,00 видеокадр)
    Время предзагрузки промежутка : 500 мс.

    Релиз подготовил:
    Залил: poja
    Размер скачиваемого торрента: 1.36 GB (1461458944 Bytes)

    День Зеро/Day Zero (2007) SATRip от MediaClub | P торрент скачать бесплатно
    загрузка...
    Рейтинг →
     (голосов: 1, оценка 5/5, голосовать можно 1 раз )

    Другие торренты по теме:

  • День в городе ангелов / Куда тебя приводит день / Where the Day Takes You (1992) DVDRip от R.G.RealMT торрент скачать бесплатно
  • День свиньи / День свиньи или Фантастический мир Иеронима Босха / Il giorno del porco (1992) TVRip | P торрент скачать бесплатно
  • Последний москаль. Судный день / Останній москаль. Судний день (2016) DVB от Files-x скачать торрент бесплатно
  • Последний москаль. Судный день / Останній москаль. Судний день (2016) WEB-DL 1080p скачать торрент бесплатно
  • Последний москаль. Судный день / Останній москаль. Судний день (2016) WEB-DLRip-AVC от Files-x скачать торрент бесплатно
  • Необычный день / Особый день / Una giornata particolare / A Special Day (1977) BDRip-AVC от MediaClub | P2 скачать торрент бесплатно
  • День первый, день последний / 1978 / РУ / TVRip скачать торрент бесплатно
  • Фыганатор 2: скудный день / Терминатор 2: судный день / Terminator 2: Judgment Day (2017) HDRip | L1 скачать торрент бесплатно


    • Комментарии (0):

      Информация

      Информация

        Посетители, находящиеся в группе Гости, не могут оставлять комментарии в данной новости.

        ↓ Меню



        ↓ Опрос

        А Вы добавили сайт в закладки?
        Да
        Не


        Top 10 за неделю (Фильмы)