.
Авторизация | Регистрация
Хочешь лучшие торренты? Добавь свой email!
Добавить
» » Детка / Laggies (2014) WEB-DLRip | Чистый звук торрент скачать бесплатно




    Детка / Laggies (2014) WEB-DLRip | Чистый звук торрент скачать бесплатно

    Опубликовал: Админ | Дата: 27-02-2015, 11:10 | Просмотров: 299


    Детально о кино
    Русское название: Детка
    Русское название в мировом прокате: Laggies
    Создали в: 2014
    Категория жанра: мелодрама, комедия
    Главный режиссер: Линн Шелтон
    Актеры:Кира Найтли, Хлоя Грейс Морец, Сэм Рокуэлл, Марк Веббер, Элли Кемпер, Джефф Гарлин, Гретхен Мол, Эрик Ридман, Кейтлин Девер, Дэниэл Дзоватто
    Сюжет фильма:Когда Меган получает предложение от парня, с которым уже давно встречается, оказывается, что на самом деле она абсолютно не готова к взрослой жизни. Поэтому она берет паузу, врёт своему парню, что уезжает на недельку в отпуск, а сама буквально впадает в детство и отрывается в компании малознакомых тинейджеров. Возможно, чтобы повзрослеть, ей нужно встретить другого мужчину?

    Снималось в: США
    Время просмотра: 01:37:02
    Тип перевода:Дублированное Чистый звукофициальное
    Файл
    Тип видео: AVI (XviD)
    Качество фильма: WEB-DLRip
    Информация о видео: 1814 kb/s, 720x384
    Информация о звуке: AC3, 192 kb/s (2 ch)

    Скриншоты для ознакомления
    mediainfo
    General
    Complete name : D3tka.2014.D.WEB-DLRip.1400MB.avi
    Format : AVI
    Format/Info : Audio Video Interleave
    File size : 1.37 GiB
    Duration : 1h 37mn
    Overall bit rate : 2 016 Kbps
    Writing application : VirtualDubMod 1.5.10.3 | www.virtualdub-fr.org || (build 2550/release)
    Writing library : VirtualDubMod build 2550/release
    Video
    ID : 0
    Format : MPEG-4 Visual
    Format profile : Advanced Simple@L5
    Format settings, BVOP : 2
    Format settings, QPel : No
    Format settings, GMC : No warppoints
    Format settings, Matrix : Default (MPEG)
    Codec ID : XVID
    Codec ID/Hint : XviD
    Duration : 1h 37mn
    Bit rate : 1 814 Kbps
    Width : 720 pixels
    Height : 384 pixels
    Display aspect ratio : 1.85:1
    Frame rate : 25.000 fps
    Color space : YUV
    Chroma subsampling : 4:2:0
    Bit depth : 8 bits
    Scan type : Progressive
    Compression mode : Lossy
    Bits/(Pixel*Frame) : 0.263
    Stream size : 1.23 GiB (90%)
    Writing library : XviD 1.2.1 (UTC 2008-12-04)
    Audio
    ID : 1
    Format : AC-3
    Format/Info : Audio Coding 3
    Mode extension : CM (complete main)
    Format settings, Endianness : Big
    Codec ID : 2000
    Duration : 1h 37mn
    Bit rate mode : Constant
    Bit rate : 192 Kbps
    Channel(s) : 2 channels
    Channel positions : Front: L R
    Sampling rate : 44.1 KHz
    Bit depth : 16 bits
    Compression mode : Lossy
    Stream size : 133 MiB (10%)
    Alignment : Split accross interleaves
    Interleave, duration : 40 ms (1.00 video frame)
    Interleave, preload duration : 500 ms

    Размер скачиваемого торрента: 1.37 GB (1467328512 Bytes)

    Детка/Laggies (2014) WEB-DLRip | Чистый звук торрент скачать бесплатно
    загрузка...
    Рейтинг →
     (голосов: 1, оценка 3/5, голосовать можно 1 раз )

    Другие торренты по теме:

  • Сексуальная детка / Sexy Baby (2012) HDTVRip от GeneralFilm | Sub
  • Прощай, детка, прощай / Gone Baby Gone (2007) BDRip-AVC | P
  • Прикончи меня, детка / Kill Me Baby (2012) HDTVRip 720p от ANIMEDIA | Rezan
  • Все возможно, детка! / Maybe Baby (2000) DVDRip-AVC скачать через торрент бесплатно
  • Детка (2014) скачать через торрент бесплатно
  • Детка в Роллс-Ройсе / Rolls-Royce Baby
  • Детка в Роллс-Ройсе / Девочка из Роллс-Ройса / Rolls-Royce Baby (1975) HDRip | A
  • Детка / Laggies


    • Комментарии (0):

      Информация

      Информация

        Посетители, находящиеся в группе Гости, не могут оставлять комментарии в данной новости.

        ↓ Меню



        ↓ Опрос

        А Вы добавили сайт в закладки?
        Да
        Не


        Top 10 за месяц (Фильмы)