.
Авторизация | Регистрация
» » Городские шпионы (2013) DVDRip-AVC от New-Team | лицензия торрент скачать бесплатно




    Городские шпионы (2013) DVDRip-AVC от New-Team | лицензия торрент скачать бесплатно

    Опубликовал: Админ | Дата: 27-02-2015, 11:10 | Просмотров: 150

    Когда твоя жизнь в тени...

    Снималось в: Россия/Щука
    Категория жанра: детектив, приключения
    Создали в: 2013
    Время просмотра: ~ 00:52:00/серия
    Перевод текста:Не требуется
    Субтитры подготовлены: нет
    Оригинальная аудиодорожка: русский
    Главный режиссер: Дмитрий Черкасов
    Актеры: Оксана Фандера, Анатолий Белый, Александр Робак, Алексей Литвиненко (II), Виталий Хаев, Анна Лутцева, Фёдор Лавров, Дмитрий Фрид, Ольга Дыховичная, Ольга Сумская, Константин Котляров, Игорь Денисов, Максим Меркулов, Борис Тенин (II), Роман Морозов, Артём Григорьев (II), Евгений Кушпель, Андрюс Паулавичюс, Полина Стефанович, Артём Григорьев (II), Олег Вебер, Инна Коляда
    Сюжет: Команда Андрея Шпагина расследует заговор крупного преступного синдиката по нелегальной добыче и контрабанде неограненных алмазов. Сложный преступный механизм под личиной солидного легального бизнеса. Городские шпионы — люди, которых мы не видим. С тысячью лиц в рукаве и без права на ошибку…

    Качество фильма: DVDRip-AVC /3 x DVD9 R5- лицензионные диски от компании Cinema Prestige
    Тип видео: MKV
    Информация о видео: 720x576@1024x576 (16:9), 25.000 fps, MPEG-4 AVC ~ 1808 kbps avg, 0.174 bit/pixel
    Информация о звуке: 48 kHz, Dolby AC3, 2 ch, 192 kbps,русский
    Раздача от:
    MediaInfo

    General
    Format : Matroska
    Format version : Version 4/Version 2
    File size : 754 MiB
    Duration : 52mn 41s
    Overall bit rate : 2 000 Kbps
    Encoded date : UTC 2014-12-05 18:58:07
    Writing application : mkvmerge v7.2.0 (;On Every Street;) 64bit built on Sep 13 2014 15:52:10
    Writing library : libebml v1.3.0 + libmatroska v1.4.1
    DURATION : 00:52:41.824000000
    NUMBER_OF_FRAMES : 98807
    NUMBER_OF_BYTES : 75883776
    _STATISTICS_WRITING_APP : mkvmerge v7.2.0 (;On Every Street;) 64bit built on Sep 13 2014 15:52:10
    _STATISTICS_WRITING_DATE_UTC : 2014-12-05 18:58:07
    _STATISTICS_TAGS : BPS DURATION NUMBER_OF_FRAMES NUMBER_OF_BYTES
    Video
    ID : 1
    Format : AVC
    Format/Info : Advanced Video Codec
    Format profile : High@L4.1
    Format settings, CABAC : Yes
    Format settings, ReFrames : 8 frames
    Codec ID : V_MPEG4/ISO/AVC
    Duration : 52mn 41s
    Bit rate : 1 808 Kbps
    Width : 720 pixels
    Height : 576 pixels
    Display aspect ratio : 16:9
    Frame rate mode : Constant
    Frame rate : 25.000 fps
    Standard : PAL
    Color space : YUV
    Chroma subsampling : 4:2:0
    Bit depth : 8 bits
    Scan type : Progressive
    Bits/(Pixel*Frame) : 0.174
    Stream size : 667 MiB (88%)
    Writing library : x264 core 138 r2356 a1d3d17
    Encoding settings : cabac=1/ref=8/deblock=1:-3:-2/analyse=0x3:0x113/me=umh/subme=10/psy=1/psy_rd=1.00:0.05/mixed_ref=1/me_range=32/chroma_me=1/trellis=2/8x8dct=1/cqm=0/deadzone=21,11/fast_pskip=0/chroma_qp_offset=-3/threads=6/lookahead_threads=1/sliced_threads=0/nr=0/decimate=0/interlaced=0/bluray_compat=0/constrained_intra=0/bframes=8/b_pyramid=2/b_adapt=2/b_bias=0/direct=3/weightb=1/open_gop=0/weightp=2/keyint=240/keyint_min=24/scenecut=40/intra_refresh=0/rc_lookahead=40/rc=2pass/mbtree=1/bitrate=1808/ratetol=1.0/qcomp=0.60/qpmin=0/qpmax=69/qpstep=4/cplxblur=20.0/qblur=0.5/ip_ratio=1.40/aq=1:1.00
    Language : Russian
    Default : Yes
    Forced : No
    DURATION : 00:52:41.960000000
    NUMBER_OF_FRAMES : 79049
    NUMBER_OF_BYTES : 714076001
    _STATISTICS_WRITING_APP : mkvmerge v7.2.0 (;On Every Street;) 64bit built on Sep 13 2014 15:52:10
    _STATISTICS_WRITING_DATE_UTC : 2014-12-05 18:58:07
    _STATISTICS_TAGS : BPS DURATION NUMBER_OF_FRAMES NUMBER_OF_BYTES
    Audio
    ID : 2
    Format : AC-3
    Format/Info : Audio Coding 3
    Mode extension : CM (complete main)
    Format settings, Endianness : Big
    Codec ID : A_AC3
    Duration : 52mn 41s
    Bit rate mode : Constant
    Bit rate : 192 Kbps
    Channel(s) : 2 channels
    Channel positions : Front: L R
    Sampling rate : 48.0 KHz
    Bit depth : 16 bits
    Compression mode : Lossy
    Stream size : 72.4 MiB (10%)
    Language : Russian
    Default : Yes
    Forced : No

    Скриншоты для ознакомления:



    Размер скачиваемого торрента: 8.78 GB (9427201489 Bytes)

    Городские шпионы (2013) DVDRip-AVC от New-Team | лицензия торрент скачать бесплатно
    загрузка...
    Рейтинг →
     (голосов: 1, оценка 3/5, голосовать можно 1 раз )

    Другие торренты по теме:

  • Городские шпионы (2013) 3xDVD9 от New-Team | Лицензия торрент скачать бесплатно
  • Городские шпионы (2013) WEB-DL 1080p от MediaClub скачать торрент бесплатно


    • Комментарии (0):

      Информация

      Информация

        Посетители, находящиеся в группе Гости, не могут оставлять комментарии в данной новости.

        ↓ Меню



        ↓ Опрос

        А Вы добавили сайт в закладки?
        Да
        Не


        Top 10 за неделю (Фильмы)