.
Авторизация | Регистрация
» » Светофор (2014) WEB-DLRip от Generalfilm | КПК скачать через торрент бесплатно




    Светофор (2014) WEB-DLRip от Generalfilm | КПК скачать через торрент бесплатно

    Опубликовал: Админ | Дата: 27-02-2015, 11:10 | Просмотров: 190


    Детально о кино
    Русское название в мировом прокате: Светофор
    Создали в: 2014
    Категория жанра: Ситком, комедия положений, ремейк
    Главный режиссер: Роман Фокин
    Актеры: Ольга Медынич, Джемал Тетруашвили, Дмитрий Миллер, Александр Макогон, Ирина Низина, Сергей Лобынцев, Александр Никольский, Евгения Каверау, Антонина Комиссарова
    Сюжет фильма:
    Когда тебе за тридцать, ты вдруг замечаешь, что твоя жизнь похожа на сигналы светофора. Если ты холостяк, для тебя всегда горит зеленый свет, все вокруг в движении, и ты свободно едешь. Куда хочешь. И с кем хочешь. Если ты встречаешься с девушкой, тебе уже мигает желтый свет. С одной стороны, ты еще в движении, а с другой, уже готовишься остановиться. А если ты женат — ты встал на красном. Все изменилось: ты уже не можешь думать только о себе. Их трое. Им немного за тридцать. Они лучшие друзья, которые всегда придут друг другу на помощь. Вернее, почти всегда. Ведь у каждого из них в жизни есть еще нечто, чему нужно уделять очень много внимания. Это – любовь. Со времен, когда у каждого героя был свой цвет — красный, желтый и зеленый, — многое поменялось. Эдик сбился со счета, коллекционируя девушек на одну ночь. У Паши и Олеси вся жизнь посвящена появлению будущего ребенка. Сева забыл, когда у него в последний раз был секс и был ли он вообще… Но главное осталось прежним: героям все так же хочется побыть хоть чуть-чуть вдали от женщин и все так же редко это у них получается.

    Снималось в: Россия
    Киностудия: Yellow, Black White
    Время просмотра: 20 х ~ 00:24:00
    Перевод текста: Не требуется
    Файл
    Качество фильма:WEB-DLRip | КПК
    Информация о видео:MPEG-4 AVC (x264), 640x360, ~500 kbps, 25.000 fps
    Информация о звуке:AAC LC, 44.1 KHz, 2 ch, 128 Kbps
    Субтитры:Нет
    Семпл
    Скриншоты для ознакомления

    MI
    Complete name : E:KinoSvetofor.S07.2014.AVC.WEB-DLRip.KPK.GeneralfilmSvetofor.s07e20.2014.AVC.WEB-DLRip.KPK.Generalfilm.mp4
    Format : MPEG-4
    Format profile : Base Media
    Codec ID : isom
    File size : 112 MiB
    Duration : 24mn 46s
    Overall bit rate mode : Variable
    Overall bit rate : 631 Kbps
    Encoded date : UTC 2014-11-19 13:11:22
    Tagged date : UTC 2014-11-19 13:11:22
    Video
    ID : 1
    Format : AVC
    Format/Info : Advanced Video Codec
    Format profile : High@L4.1
    Format settings, CABAC : Yes
    Format settings, ReFrames : 8 frames
    Codec ID : avc1
    Codec ID/Info : Advanced Video Coding
    Duration : 24mn 46s
    Bit rate : 500 Kbps
    Maximum bit rate : 1 443 Kbps
    Width : 640 pixels
    Height : 360 pixels
    Display aspect ratio : 16:9
    Frame rate mode : Constant
    Frame rate : 25.000 fps
    Color space : YUV
    Chroma subsampling : 4:2:0
    Bit depth : 8 bits
    Scan type : Progressive
    Bits/(Pixel*Frame) : 0.087
    Stream size : 88.5 MiB (79%)
    Writing library : x264 core 130 r2273 b3065e6
    Encoding settings : cabac=1/ref=8/deblock=1:-1:-1/analyse=0x3:0x133/me=umh/subme=10/psy=1/psy_rd=1.00:0.00/mixed_ref=1/me_range=24/chroma_me=1/trellis=2/8x8dct=1/cqm=0/deadzone=21,11/fast_pskip=1/chroma_qp_offset=-2/threads=12/lookahead_threads=2/sliced_threads=0/nr=0/decimate=1/interlaced=0/bluray_compat=0/constrained_intra=0/bframes=8/b_pyramid=2/b_adapt=2/b_bias=0/direct=3/weightb=1/open_gop=0/weightp=2/keyint=250/keyint_min=126/scenecut=40/intra_refresh=0/rc_lookahead=40/rc=2pass/mbtree=1/bitrate=500/ratetol=1.0/qcomp=0.60/qpmin=0/qpmax=69/qpstep=4/cplxblur=20.0/qblur=0.5/ip_ratio=1.40/aq=1:1.00
    Encoded date : UTC 2014-11-19 13:11:22
    Tagged date : UTC 2014-11-19 13:11:24
    Audio
    ID : 2
    Format : AAC
    Format/Info : Advanced Audio Codec
    Format profile : LC
    Codec ID : 40
    Duration : 24mn 46s
    Bit rate mode : Variable
    Bit rate : 128 Kbps
    Maximum bit rate : 142 Kbps
    Channel count : 2 channels
    Channel positions : Front: L R
    Sampling rate : 48.0 KHz
    Compression mode : Lossy
    Delay relative to video : 80ms
    Stream size : 22.6 MiB (20%)
    Encoded date : UTC 2014-11-19 13:11:24
    Tagged date : UTC 2014-11-19 13:11:24

    Релиз подготовил:Спс за исходник:
    Залил: toys_watch
    Размер скачиваемого торрента: 2.16 GB (2318177783 Bytes)

    Светофор (2014) WEB-DLRip от Generalfilm | КПК скачать через торрент бесплатно
    загрузка...
    Рейтинг →
     (голосов: 1, оценка 5/5, голосовать можно 1 раз )

    Другие торренты по теме:

  • Светофор (2013) SATRip торрент скачать бесплатно
  • Светофор (2013) SATRip от Getty торрент скачать бесплатно
  • Светофор (2013) IPTVRip торрент скачать бесплатно
  • Светофор (2013) DVB торрент скачать бесплатно
  • Светофор (2011-2013) SATRip торрент скачать бесплатно
  • Мой приятель светофор (1978) TVRip торрент скачать бесплатно
  • Светофор (2013) WEB-DLRip-AVC от HitWay торрент скачать бесплатно
  • Светофор (2013) WEB-DLRip -AVC от HitWay торрент скачать бесплатно


    • Комментарии (0):

      Информация

      Информация

        Посетители, находящиеся в группе Гости, не могут оставлять комментарии в данной новости.

        ↓ Меню



        ↓ Опрос

        А Вы добавили сайт в закладки?
        Да
        Не


        Top 10 за неделю (Фильмы)