.
Авторизация | Регистрация
» » Чужие / Aliens (1986) BDRip | D | Special Edition скачать через торрент бесплатно




    Чужие / Aliens (1986) BDRip | D | Special Edition скачать через торрент бесплатно

    Опубликовал: Админ | Дата: 27-02-2015, 11:10 | Просмотров: 199


    Детально о кино
    Русское название:Чужие
    Русское название в мировом прокате:Aliens
    Создали в:1986
    Категория жанра:Ужасы, фантастика, боевик, триллер, приключения
    Главный режиссер:Джеймс Кэмерон
    Актеры:Сигурни Уивер, Майкл Бин, Кэрри Хенн, Пол Райзер, Лэнс Хенриксен, Билл Пэкстон, Дженетт Голдстин, Уильям Хоуп, Эл Мэтьюз, Марк Ролстон, Рикко Росс
    Сюжет:Чужой — совершенный организм. Идеальная машина для убийства, чье физическое превосходство сочетается с его феноменальной жаждой уничтожения. Офицер Элен Рипли и команда космического корабля Ностромо один раз уже встретилась с такой тварью. В живых осталась только Элен.
    Капсула с Элен найдена спасателями после многих лет блуждания в космосе. Ей сообщают, что планета L.V. 426 колонизирована, и ей придется вернуться туда, где начался ее кошмар, ибо связь с колонистами прервалась. И вот в составе группы космического десанта Рипли отправляется на проклятую планету. Но теперь их там поджидает не один Чужой, а тысячи. Кто сможет выжить в этой войне: чудовища, способные только убивать, или люди, способные мыслить?

    Снималось в:США, Великобритания
    Время просмотра:02:34:26
    Перевод текста:Профессиональный (полное дублирование)BD CEE
    Файл
    Кодек для видео:Xvid
    Качество фильма:BDRipALIENS_HDCLUB
    Информация о видео:656x352 (1.86:1), 23.976 fps, Xvid build 73 ~1215 kbps avg, 0.22 bit/pixel
    Информация о звуке:48 kHz, MPEG Layer 3, 2 ch, ~128.00 kbps avg
    Скриншоты для ознакомления

    MediaInfo
    General
    Complete name : Chuzhie_1986_BDRip_Special_Edition_by_Dalemake.avi
    Format : AVI
    Format/Info : Audio Video Interleave
    File size : 1.46 GiB
    Duration : 2h 34mn
    Overall bit rate : 1 353 Kbps
    Writing application : VirtualDubMod 1.5.10.3 | www.virtualdub-fr.org || (build 2550/release)
    Writing library : VirtualDubMod build 2550/release
    Video
    ID : 0
    Format : MPEG-4 Visual
    Format profile : Advanced Simple@L5
    Format settings, BVOP : 1
    Format settings, QPel : No
    Format settings, GMC : No warppoints
    Format settings, Matrix : Custom
    Codec ID : XVID
    Codec ID/Hint : XviD
    Duration : 2h 34mn
    Bit rate : 1 216 Kbps
    Width : 656 pixels
    Height : 352 pixels
    Display aspect ratio : 1.85:1
    Frame rate : 23.976 fps
    Color space : YUV
    Chroma subsampling : 4:2:0
    Bit depth : 8 bits
    Scan type : Progressive
    Compression mode : Lossy
    Bits/(Pixel*Frame) : 0.220
    Stream size : 1.31 GiB (90%)
    Writing library : XviD 73
    Audio
    ID : 1
    Format : MPEG Audio
    Format version : Version 1
    Format profile : Layer 3
    Codec ID : 55
    Codec ID/Hint : MP3
    Duration : 2h 34mn
    Bit rate mode : Constant
    Bit rate : 128 Kbps
    Channel(s) : 2 channels
    Sampling rate : 48.0 KHz
    Compression mode : Lossy
    Stream size : 141 MiB (9%)
    Alignment : Aligned on interleaves
    Interleave, duration : 42 ms (1.00 video frame)
    Interleave, preload duration : 504 ms
    Writing library : LAME3.99r
    Encoding settings : -m s -V 4 -q 2 -lowpass 17 -b 128

    Размер скачиваемого торрента: 1.46 GB (1567574016 Bytes)

    Чужие/Aliens (1986) BDRip | D | Special Edition скачать через торрент бесплатно
    загрузка...
    Рейтинг →
     (голосов: 1, оценка 5/5, голосовать можно 1 раз )

    Другие торренты по теме:

  • Чужой район Фильм о фильме (2013) SATRip торрент скачать бесплатно


    • Комментарии (0):

      Информация

      Информация

        Посетители, находящиеся в группе Гости, не могут оставлять комментарии в данной новости.

        ↓ Меню



        ↓ Опрос

        А Вы добавили сайт в закладки?
        Да
        Не


        Top 10 за неделю (Фильмы)