.
Авторизация | Регистрация
» » Раскалённая Луна / High Moon (2014) HDTVRip-AVC | L2 торрент скачать бесплатно




    Раскалённая Луна / High Moon (2014) HDTVRip-AVC | L2 торрент скачать бесплатно

    Опубликовал: Админ | Дата: 27-02-2015, 11:10 | Просмотров: 157


    Детально о кино
    Русское название:Раскалённая Луна
    Русское название в мировом прокате:High Moon
    Создали в:2014
    Категория жанра:фантастика, триллер, драма
    Главный режиссер:Адам Кэйн
    Актеры:Джонатан Такер, Крис Диамантополос, Дэйна Дэвис, Черити Уэйкфилд, Джэйк Сендвиг, Даррен Шалави, Гари Чок, Констанс Ву, Кирби Мороу
    Сюжет фильма:
    В далеком будущем земляне колонизировали Луну и начали добычу полезных ископаемых. Крупные корпорации, принадлежащие различным странам, ведут борьбу за доступ к богатым месторождениям. Американцы не доверяют русским, те пытаются перехитрить американцев, все подозревают Индию и ненавидят корпорацию Галактический странник, монополизировавшую поставки кислорода на Луну. Когда на территории, контролируемой США, происходит взрыв, правительство решает, что это теракт и отправляет на Луну секретного агента для проведения расследования…

    Снималось в:Канада
    Киностудия:Halmi Company, The, Lark Productions, Universal Cable Productions
    Время просмотра:01:20:02
    Перевод текста:Любительское (двухголосое) –PashaUp ИриСКА, переводМ.Васильев
    Файл
    Кодек для видео:h.264 (MKV)
    Качество фильма:HDTVRip-AVC
    Информация о видео:AVC, 1024 x 576, 2 066 Kbps
    Информация о звуке:Russian: AC3, 384 kb/s (2 ch)/English: AC3, 384 kb/s (6 ch)
    Субтитры:Russian
    Семпл
    Скриншоты для ознакомления
    MediaInfo
    General
    Unique ID : 223586072468451217700532272786642276381 (0xA8351C785B3B1D5FA2A536EFB17B901D)
    Complete name : H: High.Moon.2014.L2.HDTVRip-AVC.mkv
    Format : Matroska
    Format version : Version 4/Version 2
    File size : 1.61 GiB
    Duration : 1h 20mn
    Overall bit rate : 2 875 Kbps
    Encoded date : UTC 2014-12-09 08:34:22
    Writing application : mkvmerge v7.0.0 (;Where We Going;) 64bit built on Jun 9 2014 15:16:27
    Writing library : libebml v1.3.0 + libmatroska v1.4.1
    DURATION : 01:18:25.648000000
    NUMBER_OF_FRAMES : 1101
    NUMBER_OF_BYTES : 42500
    _STATISTICS_WRITING_APP : mkvmerge v7.0.0 (;Where We Going;) 64bit built on Jun 9 2014 15:16:27
    _STATISTICS_WRITING_DATE_UTC : 2014-12-09 08:34:22
    _STATISTICS_TAGS : BPS DURATION NUMBER_OF_FRAMES NUMBER_OF_BYTES
    Video
    ID : 1
    Format : AVC
    Format/Info : Advanced Video Codec
    Format profile : Main@L4.1
    Format settings, CABAC : Yes
    Format settings, ReFrames : 4 frames
    Codec ID : V_MPEG4/ISO/AVC
    Duration : 1h 20mn
    Bit rate : 2 050 Kbps
    Width : 1 024 pixels
    Height : 576 pixels
    Display aspect ratio : 16:9
    Frame rate mode : Constant
    Frame rate : 23.976 fps
    Color space : YUV
    Chroma subsampling : 4:2:0
    Bit depth : 8 bits
    Scan type : Progressive
    Bits/(Pixel*Frame) : 0.145
    Stream size : 1.15 GiB (71%)
    Language : English
    Default : Yes
    Forced : No
    Audio #1
    ID : 2
    Format : AC-3
    Format/Info : Audio Coding 3
    Mode extension : CM (complete main)
    Format settings, Endianness : Big
    Codec ID : A_AC3
    Duration : 1h 20mn
    Bit rate mode : Constant
    Bit rate : 384 Kbps
    Channel(s) : 2 channels
    Channel positions : Front: L R
    Sampling rate : 48.0 KHz
    Bit depth : 16 bits
    Compression mode : Lossy
    Stream size : 220 MiB (13%)
    Language : Russian
    Default : Yes
    Forced : No
    Audio #2
    ID : 3
    Format : AC-3
    Format/Info : Audio Coding 3
    Mode extension : CM (complete main)
    Format settings, Endianness : Big
    Codec ID : A_AC3
    Duration : 1h 20mn
    Bit rate mode : Constant
    Bit rate : 384 Kbps
    Channel(s) : 6 channels
    Channel positions : Front: L C R, Side: L R, LFE
    Sampling rate : 48.0 KHz
    Bit depth : 16 bits
    Compression mode : Lossy
    Stream size : 220 MiB (13%)
    Language : English
    Default : No
    Forced : No
    Text
    ID : 4
    Format : UTF-8
    Codec ID : S_TEXT/UTF8
    Codec ID/Info : UTF-8 Plain Text
    Language : Russian
    Default : No
    Forced : No

    Релиз подготовил:
    Размер скачиваемого торрента: 1.61 GB (1726264332 Bytes)

    Раскалённая Луна/High Moon (2014) HDTVRip-AVC | L2 торрент скачать бесплатно
    загрузка...
    Рейтинг →
     (голосов: 1, оценка 5/5, голосовать можно 1 раз )

    Другие торренты по теме:



      Комментарии (0):

      Информация

      Информация

        Посетители, находящиеся в группе Гости, не могут оставлять комментарии в данной новости.

        ↓ Меню



        ↓ Опрос

        А Вы добавили сайт в закладки?
        Да
        Не


        Top 10 за неделю (Фильмы)