.
Авторизация | Регистрация
» » Отладка / Debug (2014) BDRip 1080p | L1 скачать через торрент бесплатно




    Отладка / Debug (2014) BDRip 1080p | L1 скачать через торрент бесплатно

    Опубликовал: Админ | Дата: 27-02-2015, 11:10 | Просмотров: 171



    Детально о кино
    Русское название: Отладка
    Русское название в мировом прокате: Debug
    Создали в: 2014
    Категория жанра:ужасы, фантастика
    Главный режиссер: Дэвид Хьюлетт
    Актеры: Теника Дэвис, Адриан Холмс, Керр Хьюит, Кайл Мак, Сидни Лидер, Джейдин Вонг, Адам Батчер, Джейсон Момоа

    Сюжет фильма:Команда хакеров, находится на испытательном сроке и отправлена на заброшенный космический корабль, где будет вынуждена зарабатывать себе свободу.



    Снималось в: Канада
    Время просмотра: 01:25:57
    Перевод текста:Любительский(одноголосый, закадровый)-В. Береговых, перевод -Михаил Васильев

    Файл
    Качество фильма:BDRip 1080p
    Тип видео: MKV
    Информация о видео: MPEG4/AVC, 1920х1040 (1.85:1), 9413 Кбит/сек, 23.976 кадра/сек
    Информация о звуке 1: AC3, 2 канала, 192 Кбит/сек |Русский
    Информация о звуке 2: AC3, 6 каналов, 640 Кбит/сек |Английский
    Навигация по главам: Есть

    MediaInfo:
    Общее
    Уникальный идентификатор : 253035916480420997566754810447216141617 (0xBE5CF1E20CFF642E8886EC54834A6531)
    Полное имя : Debug. (2014) BDRip 1080p.mkv
    Формат : Matroska
    Версия формата : Version 2
    Размер файла : 6,15 Гбайт
    Продолжительность : 1 ч. 25 м.
    Общий поток : 10,2 Мбит/сек
    Название фильма : Debug. 2014
    Дата кодирования : UTC 2014-12-10 11:44:47
    Программа кодирования : mkvmerge v5.8.0 (;No Sleep/Pillow;) built on Sep 2 2012 15:37:04
    Библиотека кодирования : libebml v1.2.3 + libmatroska v1.3.0

    Видео
    Идентификатор : 1
    Формат : AVC
    Формат/Информация : Advanced Video Codec
    Профиль формата : High@L4.1
    Параметр CABAC формата : Да
    Параметр ReFrames формата : 4 кадра
    Идентификатор кодека : V_MPEG4/ISO/AVC
    Продолжительность : 1 ч. 25 м.
    Битрейт : 9413 Кбит/сек
    Ширина : 1920 пикселей
    Высота : 1040 пикселей
    Соотношение сторон : 1,85:1
    Режим частоты кадров : Постоянный
    Частота кадров : 23,976 кадра/сек
    Цветовое пространство : YUV
    Субдискретизация насыщенности : 4:2:0
    Битовая глубина : 8 бит
    Тип развёртки : Прогрессивная
    Бит/(Пиксели*Кадры) : 0.197
    Размер потока : 5,53 Гбайт (90%)
    Заголовок : RARBG
    Библиотека кодирования : x264 core 142 r2479 dd79a61
    Настройки программы : cabac=1/ref=4/deblock=1:0:0/analyse=0x3:0x133/me=umh/subme=10/psy=1/psy_rd=1.00:0.00/mixed_ref=1/me_range=24/chroma_me=1/trellis=2/8x8dct=1/cqm=0/deadzone=21,11/fast_pskip=1/chroma_qp_offset=-2/threads=12/lookahead_threads=2/sliced_threads=0/nr=0/decimate=1/interlaced=0/bluray_compat=0/constrained_intra=0/bframes=8/b_pyramid=2/b_adapt=2/b_bias=0/direct=3/weightb=1/open_gop=0/weightp=2/keyint=250/keyint_min=23/scenecut=40/intra_refresh=0/rc_lookahead=60/rc=2pass/mbtree=1/bitrate=9413/ratetol=1.0/qcomp=0.60/qpmin=0/qpmax=69/qpstep=4/cplxblur=20.0/qblur=0.5/ip_ratio=1.40/aq=1:1.00
    Язык : English
    Default : Да
    Forced : Нет

    Аудио #1
    Идентификатор : 2
    Формат : AC-3
    Формат/Информация : Audio Coding 3
    Расширение режима : CM (complete main)
    Параметр Endianness формата : Big
    Идентификатор кодека : A_AC3
    Продолжительность : 1 ч. 25 м.
    Вид битрейта : Постоянный
    Битрейт : 192 Кбит/сек
    Каналы : 2 канала
    Расположение каналов : Front: L R
    Частота : 48,0 КГц
    Битовая глубина : 16 бит
    Метод сжатия : С потерями
    Задержка видео : -83 мс.
    Размер потока : 118 Мбайт (2%)
    Заголовок : L1 | В. Береговых
    Язык : Russian
    Default : Да
    Forced : Нет

    Аудио #2
    Идентификатор : 3
    Формат : AC-3
    Формат/Информация : Audio Coding 3
    Расширение режима : CM (complete main)
    Параметр Endianness формата : Big
    Идентификатор кодека : A_AC3
    Продолжительность : 1 ч. 25 м.
    Вид битрейта : Постоянный
    Битрейт : 640 Кбит/сек
    Каналы : 6 каналов
    Расположение каналов : Front: L C R, Side: L R, LFE
    Частота : 48,0 КГц
    Битовая глубина : 16 бит
    Метод сжатия : С потерями
    Задержка видео : -83 мс.
    Размер потока : 393 Мбайт (6%)
    Заголовок : Original
    Язык : English
    Default : Нет
    Forced : Нет

    Меню
    00:00:00.000 : en:00:00:00.000
    00:13:49.161 : en:00:13:49.161
    00:29:51.706 : en:00:29:51.706
    00:40:29.885 : en:00:40:29.885
    00:54:53.415 : en:00:54:53.415
    01:20:29.950 : en:01:20:29.950



    Релиз подготовил:
    Размер скачиваемого торрента: 6.15 GB (6602560543 Bytes)

    Отладка/Debug (2014) BDRip 1080p | L1 скачать через торрент бесплатно
    загрузка...
    Рейтинг →
     (голосов: 1, оценка 3/5, голосовать можно 1 раз )

    Другие торренты по теме:

  • Отладка / Debug скачать через торрент бесплатно
  • Отладка / Debug (2014) Blu-Ray Remux (1080p) от KinoRay | L1 скачать через торрент бесплатно


    • Комментарии (0):

      Информация

      Информация

        Посетители, находящиеся в группе Гости, не могут оставлять комментарии в данной новости.

        ↓ Меню



        ↓ Опрос

        А Вы добавили сайт в закладки?
        Да
        Не


        Top 10 за неделю (Фильмы)