.
Авторизация | Регистрация
» » Исчезнувшая / Gone Girl (2014) WEB-DL 720p | Звук с TS торрент скачать бесплатно




    Исчезнувшая / Gone Girl (2014) WEB-DL 720p | Звук с TS торрент скачать бесплатно

    Опубликовал: Админ | Дата: 27-02-2015, 11:10 | Просмотров: 188


    Детально о кино
    Русское название:Исчезнувшая
    Русское название в мировом прокате:Gone Girl
    Создали в:2014
    Категория жанра:триллер, драма, детектив
    Главный режиссер:Дэвид Финчер
    Актеры:Бен Аффлек, Розамунд Пайк, Нил Патрик Харрис, Мисси Пайл, Скут МакНэйри, Кэрри Кун, Тайлер Перри, Ли Норрис, Бойд Холбрук, Патрик Фьюджит
    Сюжет фильма:
    Все было готово для празднования пятилетнего юбилея супружеской жизни, когда вдруг необъяснимо пропал один из виновников торжества. Остались следы борьбы в доме, кровь, которую явно пытались стереть, — и цепочка ключей в игре под названием охота за сокровищами; красивая, умная и невероятно изобретательная жена ежегодно устраивала ее для своего обожаемого мужа. И похоже, что эти ключи — размещенные ею тут и там странные записки и не менее странные безделушки — дают единственный шанс пролить свет на судьбу исчезнувшей. Вот только не придется ли охотнику в процессе поиска раскрыть миру и пару-тройку собственных малосимпатичных тайн?

    Снималось в:США
    Время просмотра:02:29:15
    Перевод текста:Профессиональный (полное дублирование) Звук с TS
    Примечание: Полный перевод
    Семпл-Скачать
    Файл
    Качество фильма:WEB-DL 720p
    Тип видео:mkv
    Информация о видео:1280x532, 23,976 fps, ~4021 kbps
    Информация о звуке #1:Русский: AC-3, 48.0 KHz, 2 ch, 384 Kbps, CBR
    Информация о звуке #2:Английский: AC-3, 48.0 KHz, 6 ch, 384 Kbps, CBR
    MediaInfo:
    Формат : Matroska
    Версия формата : Version 4/Version 2
    Размер файла : 5,09 Гбайт
    Продолжительность : 2 ч. 29 м.
    Общий поток : 4886 Кбит/сек
    Дата кодирования : UTC 2014-12-11 05:31:52
    Программа кодирования : mkvmerge v6.9.1 (;Blue Panther;) 64bit built on Apr 18 2014 18:23:38
    Библиотека кодирования : libebml v1.3.0 + libmatroska v1.4.1
    Видео
    Идентификатор : 1
    Формат : AVC
    Формат/Информация : Advanced Video Codec
    Профиль формата : Main@L3.1
    Параметр CABAC формата : Нет
    Параметр ReFrames формата : 2 кадра
    Идентификатор кодека : V_MPEG4/ISO/AVC
    Продолжительность : 2 ч. 29 м.
    Битрейт : 4021 Кбит/сек
    Ширина : 1280 пикселей
    Высота : 532 пикселя
    Соотношение сторон : 2,40:1
    Режим частоты кадров : Постоянный
    Частота кадров : 23,976 кадра/сек
    Цветовое пространство : YUV
    Субдискретизация насыщенности : 4:2:0
    Битовая глубина : 8 бит
    Тип развёртки : Прогрессивная
    Бит/(Пиксели*Кадры) : 0.246
    Размер потока : 4,19 Гбайт (82%)
    Язык : English
    Default : Да
    Forced : Нет
    Основные цвета : BT.709
    Характеристики трансфера : BT.709
    Коэффициенты матрицы : BT.709
    Аудио #1
    Идентификатор : 2
    Формат : AC-3
    Формат/Информация : Audio Coding 3
    Расширение режима : CM (complete main)
    Параметр Endianness формата : Big
    Идентификатор кодека : A_AC3
    Продолжительность : 2 ч. 29 м.
    Вид битрейта : Постоянный
    Битрейт : 384 Кбит/сек
    Каналы : 2 канала
    Расположение каналов : Front: L R
    Частота : 48,0 КГц
    Битовая глубина : 16 бит
    Метод сжатия : С потерями
    Размер потока : 410 Мбайт (8%)
    Язык : Russian
    Default : Да
    Forced : Нет
    Аудио #2
    Идентификатор : 3
    Формат : AC-3
    Формат/Информация : Audio Coding 3
    Расширение режима : CM (complete main)
    Параметр Endianness формата : Big
    Идентификатор кодека : A_AC3
    Продолжительность : 2 ч. 29 м.
    Вид битрейта : Постоянный
    Битрейт : 384 Кбит/сек
    Каналы : 6 каналов
    Расположение каналов : Front: L C R, Side: L R, LFE
    Частота : 48,0 КГц
    Битовая глубина : 16 бит
    Метод сжатия : С потерями
    Размер потока : 410 Мбайт (8%)
    Язык : English
    Default : Нет
    Forced : Нет
    Текст
    Идентификатор : 4
    Формат : UTF-8
    Идентификатор кодека : S_TEXT/UTF8
    Идентификатор кодека/Информация : UTF-8 Plain Text
    Язык : English
    Default : Нет
    Forced : Нет
    Меню
    00:00:00.000 : en:1
    00:03:26.000 : en:2
    00:06:56.000 : en:3
    00:08:17.000 : en:4
    00:11:56.000 : en:5
    00:14:59.000 : en:6
    00:18:11.000 : en:7
    00:19:54.000 : en:8
    00:21:40.000 : en:9
    00:23:51.000 : en:10
    00:28:32.000 : en:11
    00:31:29.000 : en:12
    00:34:35.000 : en:13
    00:40:47.000 : en:14
    00:44:33.000 : en:15
    00:46:53.000 : en:16
    00:49:15.000 : en:17
    00:54:08.000 : en:18
    01:00:01.000 : en:19
    01:03:11.000 : en:20
    01:06:03.000 : en:21
    01:12:51.000 : en:22
    01:15:07.000 : en:23
    01:19:48.000 : en:24
    01:21:50.000 : en:25
    01:27:17.000 : en:26
    01:28:06.000 : en:27
    01:33:21.000 : en:28
    01:39:27.000 : en:29
    01:46:19.000 : en:30
    01:50:38.000 : en:31
    01:56:32.000 : en:32
    01:58:57.000 : en:33
    02:02:14.000 : en:34
    02:05:26.000 : en:35
    02:12:21.000 : en:36
    02:16:03.000 : en:37
    02:19:47.000 : en:38
    02:22:32.000 : en:39
    02:24:05.000 : en:40

    Скриншоты для ознакомления



    Размер скачиваемого торрента: 5.09 GB (5469626183 Bytes)

    Исчезнувшая/Gone Girl (2014) WEB-DL 720p | Звук с TS торрент скачать бесплатно
    загрузка...
    Рейтинг →
     (голосов: 1, оценка 5/5, голосовать можно 1 раз )

    Другие торренты по теме:

  • Исчезнувшая луна / Khoya Khoya Chand (2007) SATRip от Files-x | P торрент скачать бесплатно
  • Великие тайны с Игорем Прокопенко. Великие тайны исчезнувших цивилизаций (2014) SATRip скачать через торрент бесплатно
  • Крымские истории. По следам исчезнувших цивилизаций (2014) SATRip скачать через торрент бесплатно
  • Исчезнувшая (2014) скачать через торрент бесплатно
  • Исчезнувшая / Gone Girl торрент скачать бесплатно
  • OST - Исчезнувшая / Gone Girl (2014) MP3 торрент скачать бесплатно
  • Исчезнувшая / Gone Girl (2014) CAMRip скачать через торрент бесплатно
  • Исчезнувшие женщины торрент скачать бесплатно


    • Комментарии (0):

      Информация

      Информация

        Посетители, находящиеся в группе Гости, не могут оставлять комментарии в данной новости.

        ↓ Меню



        ↓ Опрос

        А Вы добавили сайт в закладки?
        Да
        Не


        Top 10 за неделю (Фильмы)