.
Авторизация | Регистрация
» » Достань меня, если сможешь / Reach Me (2014) BDRemux 1080p | L2 скачать через торрент бесплатно




    Достань меня, если сможешь / Reach Me (2014) BDRemux 1080p | L2 скачать через торрент бесплатно

    Опубликовал: Админ | Дата: 27-02-2015, 11:10 | Просмотров: 158



    Детально о кино
    Русское название: Достань меня, если сможешь
    Русское название в мировом прокате: Reach Me/Out of sight
    Создали в: 2014
    Категория жанра:Драма
    Главный режиссер: Джон Херцфелд
    Актеры: Лорен Кохэн, Том Беренджер, Сильвестр Сталлоне, Дэнни Айелл, Дэнни Трехо, Кира Седжвик, Томас Джейн, Кевин Коннолли, Том Сайзмор, Нелли, Омари Хардвик, Дэвид О’Хара, Келси Грэммер, Терри Крюс

    Сюжет фильма:Драма развивается вокруг группы людей, каждый из которых как-то связан с книгой по самосовершенствованию, а ее автором является ведущий затворнический образ жизни бывший тренер футбольной команды.



    Снималось в: США
    Время просмотра: 01:32:14
    Перевод текста:Любительский(двухголосый, закадровый)-Пиратская Студия

    Файл
    Качество фильма:BDRemux 1080p
    Тип видео: MKV
    Информация о видео: MPEG4/AVC, 1920х1080 (16:9), 24997 Кбит/сек, 23.976 кадра/сек
    Информация о звуке 1: AC3, 6 каналов, 448 Кбит/сек |Русский
    Информация о звуке 2: AC3, 6 каналов, 640 Кбит/сек |Английский
    Информация о звуке 3: TrueHD, 6 каналов, 3345 Кбит/сек (AC3 Встроенный, 6 каналов, 640 Кбит/сек) |Английский
    Субтитры: Английские (Full, SDH)
    Навигация по главам: Есть

    MediaInfo:
    Общее
    Уникальный идентификатор : 181812043838365662462105245838795343245 (0x88C7B9D7B7F93AC88E4D24FCE8B4058D)
    Полное имя : Reach Me. (2014) BDRemux 1080p.mkv
    Формат : Matroska
    Версия формата : Version 2
    Размер файла : 18,9 Гбайт
    Продолжительность : 1 ч. 32 м.
    Режим общего битрейта : Переменный
    Общий поток : 29,4 Мбит/сек
    Название фильма : Reach Me. 2014
    Дата кодирования : UTC 2014-12-14 13:44:22
    Программа кодирования : mkvmerge v5.8.0 (;No Sleep/Pillow;) built on Sep 2 2012 15:37:04
    Библиотека кодирования : libebml v1.2.3 + libmatroska v1.3.0

    Видео
    Идентификатор : 1
    Формат : AVC
    Формат/Информация : Advanced Video Codec
    Профиль формата : High@L4.1
    Параметр CABAC формата : Да
    Параметр ReFrames формата : 4 кадра
    Идентификатор кодека : V_MPEG4/ISO/AVC
    Продолжительность : 1 ч. 32 м.
    Вид битрейта : Переменный
    Максимальный битрейт : 33,0 Мбит/сек
    Ширина : 1920 пикселей
    Высота : 1080 пикселей
    Соотношение сторон : 16:9
    Режим частоты кадров : Постоянный
    Частота кадров : 23,976 кадра/сек
    Цветовое пространство : YUV
    Субдискретизация насыщенности : 4:2:0
    Битовая глубина : 8 бит
    Тип развёртки : Прогрессивная
    Заголовок : BuR
    Язык : English
    Default : Да
    Forced : Нет

    Аудио #1
    Идентификатор : 2
    Формат : AC-3
    Формат/Информация : Audio Coding 3
    Расширение режима : CM (complete main)
    Параметр Endianness формата : Big
    Идентификатор кодека : A_AC3
    Продолжительность : 1 ч. 32 м.
    Вид битрейта : Постоянный
    Битрейт : 448 Кбит/сек
    Каналы : 6 каналов
    Расположение каналов : Front: L C R, Side: L R, LFE
    Частота : 48,0 КГц
    Битовая глубина : 16 бит
    Метод сжатия : С потерями
    Размер потока : 296 Мбайт (2%)
    Заголовок : P2 | Пиратская студия
    Язык : Russian
    Default : Да
    Forced : Нет

    Аудио #2
    Идентификатор : 3
    Формат : AC-3
    Формат/Информация : Audio Coding 3
    Расширение режима : CM (complete main)
    Параметр Endianness формата : Big
    Идентификатор кодека : A_AC3
    Продолжительность : 1 ч. 32 м.
    Вид битрейта : Постоянный
    Битрейт : 640 Кбит/сек
    Каналы : 6 каналов
    Расположение каналов : Front: L C R, Side: L R, LFE
    Частота : 48,0 КГц
    Битовая глубина : 16 бит
    Метод сжатия : С потерями
    Размер потока : 422 Мбайт (2%)
    Заголовок : Original
    Язык : English
    Default : Нет
    Forced : Нет

    Аудио #3
    Идентификатор : 4
    Формат : TrueHD
    Идентификатор кодека : A_TRUEHD
    Продолжительность : 1 ч. 32 м.
    Вид битрейта : Переменный
    Максимальный битрейт : 5175 Кбит/сек
    Каналы : 6 каналов
    Расположение каналов : Front: L C R, Side: L R, LFE
    Частота : 48,0 КГц
    Метод сжатия : Без потерь
    Заголовок : Original | Dolby TrueHD Audio | 5.1 | 48 kHz | 3345 kbps | 24-bit
    Язык : English
    Default : Нет
    Forced : Нет

    Текст #1
    Идентификатор : 5
    Формат : UTF-8
    Идентификатор кодека : S_TEXT/UTF8
    Идентификатор кодека/Информация : UTF-8 Plain Text
    Заголовок : Full
    Язык : English
    Default : Нет
    Forced : Нет

    Текст #2
    Идентификатор : 6
    Формат : UTF-8
    Идентификатор кодека : S_TEXT/UTF8
    Идентификатор кодека/Информация : UTF-8 Plain Text
    Заголовок : SDH
    Язык : English
    Default : Нет
    Forced : Нет

    Меню
    00:00:00.000 : en:00:00:00.000
    00:08:26.798 : en:00:08:26.798
    00:15:45.403 : en:00:15:45.403
    00:23:27.448 : en:00:23:27.448
    00:29:37.859 : en:00:29:37.859
    00:37:21.406 : en:00:37:21.406
    00:48:45.005 : en:00:48:45.005
    00:57:04.129 : en:00:57:04.129
    01:04:23.568 : en:01:04:23.568
    01:10:32.437 : en:01:10:32.437
    01:16:08.147 : en:01:16:08.147
    01:24:53.630 : en:01:24:53.630



    Релиз подготовил:
    Размер скачиваемого торрента: 18.93 GB (20325653245 Bytes)

    Достань меня, если сможешь/Reach Me (2014) BDRemux 1080p | L2 скачать через торрент бесплатно
    загрузка...
    Рейтинг →
     (голосов: 1, оценка 5/5, голосовать можно 1 раз )

    Другие торренты по теме:

  • Достань меня, если сможешь / Reach Me (2014) WEB-DLRip | L1 торрент скачать бесплатно
  • Достань меня, если сможешь / Reach Me скачать через торрент бесплатно
  • Достань меня, если сможешь / Reach Me (2014) BDRip 1080p | L2 торрент скачать бесплатно
  • Достань меня, если сможешь / Reach Me (2014) BDRip-AVC от MediaClub | L2 скачать через торрент бесплатно
  • Достань меня, если сможешь / Reach Me (2014) BDRip 720p от HELLYWOOD | A скачать торрент бесплатно


    • Комментарии (0):

      Информация

      Информация

        Посетители, находящиеся в группе Гости, не могут оставлять комментарии в данной новости.

        ↓ Меню



        ↓ Опрос

        А Вы добавили сайт в закладки?
        Да
        Не


        Top 10 за неделю (Фильмы)