.
Авторизация | Регистрация
» » Последние часы / These Final Hours (2013) BDRip 720p | L1 торрент скачать бесплатно




    Последние часы / These Final Hours (2013) BDRip 720p | L1 торрент скачать бесплатно

    Опубликовал: Админ | Дата: 27-02-2015, 11:10 | Просмотров: 100


    Детально о кино
    Русское название: Последние часы
    Русское название в мировом прокате: These Final Hours
    Создали в: 2013
    Категория жанра: фантастика, триллер, драма
    Главный режиссер: Зак Хилдитч
    Актеры:Сара Снук, Джессика Де Гау, Дэниэл Хеншэлл, Нэйтан Филлипс, Дэвид Филд, Ангури Райс, Кэтерин Бек, Линетт Каррен, Корум Элис
    Сюжет фильма:Это последний день на земле. Через двенадцать часов глобальный катаклизм положит всему конец. Джеймс держит путь через город, погрузившийся в хаос, чтобы попасть на последнюю вечеринку. По пути он спасает жизнь маленькой девочки по имени Роуз, которая отчаянно ищет своего отца.

    Снималось в: Австралия
    Время просмотра: 01:26:31
    Тип перевода:Любительское (одноголосое) RAIM - по переводу Janetta
    Файл
    Тип видео: MKV
    Качество фильма: BDRip 720p
    Информация о видео: 5726 kb/s, 1280x536
    Информация о звуке: Russian: AC3, 448 kb/s (6 ch)/English: DTS, 1510 kb/s (6 ch)


    MI

    Format : Matroska
    Format version : Version 4/Version 2
    File size : 4.64 GiB
    Duration : 1h 26mn
    Overall bit rate : 7 677 Kbps
    Encoded date : UTC 2014-12-15 06:52:31
    Writing application : mkvmerge v6.1.0 (;Old Devil;) built on Mar 4 2013 09:10:42
    Writing library : libebml v1.3.0 + libmatroska v1.4.0
    Video
    ID : 1
    Format : AVC
    Format/Info : Advanced Video Codec
    Format profile : High@L4.1
    Format settings, CABAC : Yes
    Format settings, ReFrames : 9 frames
    Codec ID : V_MPEG4/ISO/AVC
    Duration : 1h 26mn
    Bit rate : 5 726 Kbps
    Width : 1 280 pixels
    Height : 536 pixels
    Display aspect ratio : 2.40:1
    Frame rate : 24.000 fps
    Color space : YUV
    Chroma subsampling : 4:2:0
    Bit depth : 8 bits
    Scan type : Progressive
    Bits/(Pixel*Frame) : 0.348
    Stream size : 3.36 GiB (73%)
    Writing library : x264 core 142 r2491 24e4fed
    Encoding settings : cabac=1/ref=9/deblock=1:-3:-3/analyse=0x3:0x113/me=umh/subme=10/psy=1/psy_rd=1.05:0.00/mixed_ref=1/me_range=24/chroma_me=1/trellis=2/8x8dct=1/cqm=0/deadzone=21,11/fast_pskip=0/chroma_qp_offset=-2/threads=12/lookahead_threads=2/sliced_threads=0/nr=0/decimate=0/interlaced=0/bluray_compat=0/constrained_intra=0/bframes=9/b_pyramid=2/b_adapt=2/b_bias=0/direct=3/weightb=1/open_gop=0/weightp=2/keyint=250/keyint_min=24/scenecut=40/intra_refresh=0/rc=2pass/mbtree=0/bitrate=5726/ratetol=1.0/qcomp=0.60/qpmin=0/qpmax=69/qpstep=4/cplxblur=20.0/qblur=0.5/ip_ratio=1.40/pb_ratio=1.30/aq=1:0.70
    Language : English
    Default : Yes
    Forced : No
    Audio #1
    ID : 2
    Format : AC-3
    Format/Info : Audio Coding 3
    Mode extension : CM (complete main)
    Format settings, Endianness : Big
    Codec ID : A_AC3
    Duration : 1h 26mn
    Bit rate mode : Constant
    Bit rate : 448 Kbps
    Channel(s) : 6 channels
    Channel positions : Front: L C R, Side: L R, LFE
    Sampling rate : 48.0 KHz
    Bit depth : 16 bits
    Compression mode : Lossy
    Stream size : 277 MiB (6%)
    Language : Russian
    Default : No
    Forced : No
    Audio #2
    ID : 3
    Format : DTS
    Format/Info : Digital Theater Systems
    Codec ID : A_DTS
    Duration : 1h 26mn
    Bit rate mode : Constant
    Bit rate : 1 510 Kbps
    Channel(s) : 6 channels
    Channel positions : Front: L C R, Side: L R, LFE
    Sampling rate : 48.0 KHz
    Bit depth : 24 bits
    Compression mode : Lossy
    Stream size : 934 MiB (20%)
    Language : English
    Default : No
    Forced : No
    Menu
    00:00:00.000 : en:00:00:00.000
    00:05:59.750 : en:00:05:59.750
    00:12:35.208 : en:00:12:35.208
    00:17:00.250 : en:00:17:00.250
    00:22:03.917 : en:00:22:03.917
    00:28:13.000 : en:00:28:13.000
    00:32:30.250 : en:00:32:30.250
    00:40:15.167 : en:00:40:15.167
    00:43:35.625 : en:00:43:35.625
    00:51:35.292 : en:00:51:35.292
    00:54:34.500 : en:00:54:34.500
    01:00:24.125 : en:01:00:24.125
    01:04:39.667 : en:01:04:39.667
    01:10:05.542 : en:01:10:05.542
    01:13:56.750 : en:01:13:56.750
    01:20:42.417 : en:01:20:42.417
    Скриншоты для ознакомления

    Размер скачиваемого торрента: 4.64 GB (4981612814 Bytes)

    Последние часы/These Final Hours (2013) BDRip 720p | L1 торрент скачать бесплатно
    загрузка...
    Рейтинг →
     (голосов: 1, оценка 3/5, голосовать можно 1 раз )

    Другие торренты по теме:



      Комментарии (0):

      Информация

      Информация

        Посетители, находящиеся в группе Гости, не могут оставлять комментарии в данной новости.

        ↓ Меню



        ↓ Опрос

        А Вы добавили сайт в закладки?
        Да
        Не


        Top 10 за неделю (Фильмы)