.
Авторизация | Регистрация
Хочешь лучшие торренты? Добавь свой email!
Добавить
» » Колдовство / The Craft (1996) Blu-Ray Remux 1080p | D, P, A торрент скачать бесплатно




    Колдовство / The Craft (1996) Blu-Ray Remux 1080p | D, P, A торрент скачать бесплатно

    Опубликовал: Админ | Дата: 27-02-2015, 11:10 | Просмотров: 114


    Колдовство
    | The Craft |

    Детально о кино
    Русское название:Колдовство
    Русское название в мировом прокате:The Craft
    Создали в:1996
    Категория жанра:ужасы, фэнтези, триллер, драма
    Главный режиссер:Эндрю Флеминг
    Актеры:Робин Танни, Файруза Балк, Нив Кэмпбелл, Рэйчел Тру, Скит Ульрих, Кристин Тейлор, Брекин Мейер, Натаниель Марстон, Клифф Де Янг, Ассумпта Серна
    Сюжет фильма:
    Три молодых ведьмочки, которых никто не переносит в собственной школе, в один прекрасный день вдруг интуитивно почувствовали, что вот-вот к ним присоединится четвертая. И действительно, в классе появляется новенькая, и теперь их четверо, как и сказано в заклинании, и они могут расквитаться со всеми обидчиками. Заклинания, змеи, крысы, пауки – колдовская четверка не дает проходу половине города, и сами, судя по всему, получают от этого немалое удовольствие. Но игра зашла слишком далеко – они разбудили колдовские силы, которые теперь не в силах остановить, даже когда гибнут ни в чем не повинные люди.

    Снималось в:США
    Киностудия:Columbia Pictures Corporation
    Время просмотра:01:40:59
    Перевод текста:Дублированный, профессиональный многоголосый, авторский
    Файл
    Кодек для видео:h.264
    Качество фильма:Blu-Ray Remux 1080p
    Информация о видео:27872 Кбит/с, 1920x1080, 23.976 кадр/с
    Информация о звуке:
    • №1: Русский (AC3, 6 ch, 384 Кбит/с) Дублированный
    • №2: Русский (AC3, 2 ch, 192 Кбит/с) Профессиональный многоголосый
    • №3: Русский (DTS-HD MA, 6 ch, 3460 Кбит/с) Авторский одноголосый Юрий Живов
    • №4: Русский (AC3, 2 ch, 192 Кбит/с) Авторский одноголосый Сергей Визгунов
    • №5: Английский (DTS-HD MA, 6 ch, 3075 Кбит/с)
    Субтитры:Русские, английские, английские SDH
    MediaInfo

    За исходный BDAV Blu-Ray Remux спасибо HDTracker
    The.Craft.1996.x264.Blu-Ray.Remux.1080p.mkv
    Формат : Matroska
    Версия формата : Version 2
    Размер файла : 24,8 Гбайт
    Продолжительность : 1 ч. 40 м.
    Режим общего битрейта : Переменный
    Общий поток : 35,2 Мбит/сек
    Название фильма : Колдовство | The Craft 1996 -= Blu-Ray Remux 1080p =-
    Дата кодирования : UTC 2014-12-15 18:48:49
    Программа кодирования : mkvmerge v6.6.0 (;The Edge Of The In Between;) built on Dec 1 2013 17:55:00
    Библиотека кодирования : libebml v1.3.0 + libmatroska v1.4.1
    Видео
    Идентификатор : 1
    Формат : AVC
    Формат/Информация : Advanced Video Codec
    Профиль формата : High@L4.1
    Параметр CABAC формата : Да
    Параметр ReFrames формата : 2 кадра
    Идентификатор кодека : V_MPEG4/ISO/AVC
    Продолжительность : 1 ч. 40 м.
    Вид битрейта : Переменный
    Ширина : 1920 пикселей
    Высота : 1080 пикселей
    Соотношение сторон : 16:9
    Режим частоты кадров : Постоянный
    Частота кадров : 23,976 кадра/сек
    Цветовое пространство : YUV
    Субдискретизация насыщенности : 4:2:0
    Битовая глубина : 8 бит
    Тип развёртки : Прогрессивная
    Заголовок : The Craft 1996 -= Blu-Ray Remux 1080p =-
    Язык : English
    Default : Да
    Forced : Да
    Аудио #1
    Идентификатор : 2
    Формат : AC-3
    Формат/Информация : Audio Coding 3
    Расширение режима : CM (complete main)
    Параметр Endianness формата : Big
    Идентификатор кодека : A_AC3
    Продолжительность : 1 ч. 40 м.
    Вид битрейта : Постоянный
    Битрейт : 384 Кбит/сек
    Каналы : 6 каналов
    Расположение каналов : Front: L C R, Side: L R, LFE
    Частота : 48,0 КГц
    Битовая глубина : 16 бит
    Метод сжатия : С потерями
    Размер потока : 277 Мбайт (1%)
    Заголовок : Дублированный AC3 5.1 @ 384 kbps
    Язык : Russian
    Default : Да
    Forced : Да
    Аудио #2
    Идентификатор : 3
    Формат : AC-3
    Формат/Информация : Audio Coding 3
    Расширение режима : CM (complete main)
    Параметр Endianness формата : Big
    Идентификатор кодека : A_AC3
    Продолжительность : 1 ч. 40 м.
    Вид битрейта : Постоянный
    Битрейт : 192 Кбит/сек
    Каналы : 2 канала
    Расположение каналов : Front: L R
    Частота : 48,0 КГц
    Битовая глубина : 16 бит
    Метод сжатия : С потерями
    Размер потока : 139 Мбайт (1%)
    Заголовок : Многоголосый AC3 2.0 @ 192 kbps
    Язык : Russian
    Default : Нет
    Forced : Нет
    Аудио #3
    Идентификатор : 4
    Формат : DTS
    Формат/Информация : Digital Theater Systems
    Профиль формата : MA/Core
    Режим : 16
    Параметр Endianness формата : Big
    Идентификатор кодека : A_DTS
    Продолжительность : 1 ч. 40 м.
    Вид битрейта : Переменный
    Битрейт : Неизвестно/1509 Кбит/сек
    Каналы : 6 каналов
    Расположение каналов : Front: L C R, Side: L R, LFE
    Частота : 48,0 КГц
    Битовая глубина : 24 бит
    Метод сжатия : Без потерь/Lossy
    Заголовок : Авторский Юрий Живов DTS-HD MA 5.1 @ 3460 kbps
    Язык : Russian
    Default : Нет
    Forced : Нет
    Аудио #4
    Идентификатор : 5
    Формат : AC-3
    Формат/Информация : Audio Coding 3
    Расширение режима : CM (complete main)
    Параметр Endianness формата : Big
    Идентификатор кодека : A_AC3
    Продолжительность : 1 ч. 40 м.
    Вид битрейта : Постоянный
    Битрейт : 192 Кбит/сек
    Каналы : 2 канала
    Расположение каналов : Front: L R
    Частота : 48,0 КГц
    Битовая глубина : 16 бит
    Метод сжатия : С потерями
    Размер потока : 139 Мбайт (1%)
    Заголовок : Авторский Сергей Визгунов AC3 2.0 @ 192 kbps
    Язык : Russian
    Default : Нет
    Forced : Нет
    Аудио #5
    Идентификатор : 6
    Формат : DTS
    Формат/Информация : Digital Theater Systems
    Профиль формата : MA/Core
    Режим : 16
    Параметр Endianness формата : Big
    Идентификатор кодека : A_DTS
    Продолжительность : 1 ч. 40 м.
    Вид битрейта : Переменный
    Битрейт : Неизвестно/1509 Кбит/сек
    Каналы : 6 каналов
    Расположение каналов : Front: L C R, Side: L R, LFE
    Частота : 48,0 КГц
    Битовая глубина : 24 бит
    Метод сжатия : Без потерь/Lossy
    Заголовок : DTS-HD MA 5.1 @ 3075 kbps
    Язык : English
    Default : Нет
    Forced : Нет
    Текст #1
    Идентификатор : 7
    Формат : UTF-8
    Идентификатор кодека : S_TEXT/UTF8
    Идентификатор кодека/Информация : UTF-8 Plain Text
    Язык : Russian
    Default : Нет
    Forced : Нет
    Текст #2
    Идентификатор : 8
    Формат : UTF-8
    Идентификатор кодека : S_TEXT/UTF8
    Идентификатор кодека/Информация : UTF-8 Plain Text
    Язык : English
    Default : Нет
    Forced : Нет
    Текст #3
    Идентификатор : 9
    Формат : UTF-8
    Идентификатор кодека : S_TEXT/UTF8
    Идентификатор кодека/Информация : UTF-8 Plain Text
    Заголовок : SDH
    Язык : English
    Default : Нет
    Forced : Нет
    Меню
    00:00:00.000 : en:Start
    00:05:12.979 : en:St. Benedict;s Academy
    00:13:14.669 : en:Football Practice
    00:17:29.757 : en:Shopping at Lirio;s
    00:24:46.360 : en:Snake Vagrant
    00:28:18.196 : en:A Natural Witch
    00:35:04.019 : en:Picking on Rochelle
    00:41:17.350 : en:Gene Therapy
    00:48:42.253 : en:Field Trip
    00:53:23.826 : en:Light As a Feather
    01:02:23.198 : en:Laura Loses It
    01:08:57.342 : en:Positive Results
    01:15:36.615 : en:$175,000
    01:20:25.696 : en:Glamour Spells
    01:26:09.331 : en:Neither Black Nor White
    01:28:29.513 : en:Invoking the Spirit
    Скриншоты для ознакомления



    Залил: 0ptimus
    Размер скачиваемого торрента: 24.82 GB (26645952892 Bytes)

    Колдовство/The Craft (1996) Blu-Ray Remux 1080p | D, P, A торрент скачать бесплатно
    загрузка...
    Рейтинг →
     (голосов: 1, оценка 3/5, голосовать можно 1 раз )

    Другие торренты по теме:

  • Колдовство / The Craft (1996) BDRip от HQCLUB
  • Колдовство / The Craft (1996) BDRip от Rulya74 | D. P
  • Колдовство / The Craft (1996) BDRip 720p от 0ptimus | D, P, A
  • Колдовство / The Craft / 1996 / ДБ, ПМ, АП (Живов, Визгунов), СТ / Blu-Ray Remux (1080p)
  • Колдовство / Xie (1980) BDRemux 1080p | А
  • Колдовство 7: Час расплаты / Чёрная магия 7 / Witchcraft 7: Judgement Hour / Witchcraft 7: A Taste for Blood (1995) VHSRip | L1


    • Комментарии (0):

      Информация

      Информация

        Посетители, находящиеся в группе Гости, не могут оставлять комментарии в данной новости.

        ↓ Меню



        ↓ Опрос

        А Вы добавили сайт в закладки?
        Да
        Не


        Top 10 за месяц (Фильмы)