.
Авторизация | Регистрация
» » Великий уравнитель / The Equalizer (2014) BDRip от ExKinoRay | D, A | Лицензия скачать через торрент бесплатно




    Великий уравнитель / The Equalizer (2014) BDRip от ExKinoRay | D, A | Лицензия скачать через торрент бесплатно

    Опубликовал: Админ | Дата: 27-02-2015, 11:10 | Просмотров: 188


    Детально о кино
    Русское название:Великий уравнитель
    Русское название в мировом прокате:The Equalizer
    Создали в:2014
    Категория жанра:Боевик, триллер, криминал
    Главный режиссер:Антуан Фукуа
    Актеры:Дензел Вашингтон, Мартон Чокаш, Клои Грэйс Моретц, Дэвид Харбор, Хейли Беннетт, Билл Пуллман, Мелисса Лео, Дэвид Мюнье, Джонни Скуртис, Алекс Видов
    Сюжет фильма:Роберт МакКолл — бывший спецназовец. После увольнения со службы он собирается начать нормальную мирную жизнь, дав себе обещание, больше никогда не брать в руки оружия. Но в один прекрасный момент он встречает молодую девушку, зарабатывающую на жизнь проституцией, которую на его глазах избивают бандиты и увозят в неизвестном направлении. Тогда он решает отыскать ее, после чего вступает в неравную схватку с русской мафией и продажными агентами ЦРУ. Ради справедливости он готов нарушить собственное обещание и применить оружие против людей, которые просто не заслуживают жить в этом мире…

    Снималось в:США, Columbia Pictures, Escape Artists, Lionsgate
    Время просмотра:02:12:02
    Тип перевода:Дублированный (BD CEE)+ Авторский (одноголосый, закадровый) Дмитрий Есарев | Без цензуры/Цензура |
    Файл
    Кодек для видео:XviD
    Качество фильма:ВDRip (The.Equalizer.2014.BDRemux.(1080p).ExKinoRay)
    Информация о видео:720x304 (2,35:1), 23,976 fps, XviD 73 ~1954 kbps avg, 0.372 bit/pixel
    Информация о звуке 1:48.0 kHz, Audio Coding 3, 6 ch, 448 Kbps|Дублированный (BD CEE)
    Информация о звуке 2:48.0 kHz, Audio Coding 3, 6 ch, 384 Kbps| AVO Дмитрий Есарев (Rus) | Без цензуры |
    Информация о звуке 3:48.0 kHz, Audio Coding 3, 6 ch, 384 Kbps| AVO Дмитрий Есарев (Rus) | Цензура |
    MI
    Общее
    Полное имя : D:ВидеоThe.Equalizer.2014.BDRip by Vovan366(ExKinoRay).avi
    Формат : AVI
    Формат/Информация : Audio Video Interleave
    Профиль формата : OpenDML
    Размер файла : 2,94 Гбайт
    Продолжительность : 2 ч. 12 м.
    Общий поток : 3190 Кбит/сек
    Программа кодирования : VirtualDubMod 1.5.10.3 (build 2550/release)
    Библиотека кодирования : VirtualDubMod build 2550/release
    Видео
    Идентификатор : 0
    Формат : MPEG-4 Visual
    Профиль формата : Advanced Simple@L5
    Параметр BVOP формата : 2
    Параметр QPel формата : Нет
    Параметр GMC формата : Без точки перехода
    Параметр матрицы формата : Выборочная
    Идентификатор кодека : XVID
    Идентификатор кодека/Подсказка : XviD
    Продолжительность : 2 ч. 12 м.
    Битрейт : 1954 Кбит/сек
    Ширина : 720 пикселей
    Высота : 304 пикселя
    Соотношение сторон : 2,35:1
    Частота кадров : 23,976 кадра/сек
    Цветовое пространство : YUV
    Субдискретизация насыщенности : 4:2:0
    Битовая глубина : 8 бит
    Тип развёртки : Прогрессивная
    Метод сжатия : С потерями
    Бит/(Пиксели*Кадры) : 0.372
    Размер потока : 1,80 Гбайт (61%)
    Библиотека кодирования : XviD 73
    Аудио #1
    Идентификатор : 1
    Формат : AC-3
    Формат/Информация : Audio Coding 3
    Расширение режима : CM (complete main)
    Параметр Endianness формата : Big
    Идентификатор кодека : 2000
    Продолжительность : 2 ч. 12 м.
    Вид битрейта : Постоянный
    Битрейт : 448 Кбит/сек
    Каналы : 6 каналов
    Расположение каналов : Front: L C R, Side: L R, LFE
    Частота : 48,0 КГц
    Битовая глубина : 16 бит
    Метод сжатия : С потерями
    Размер потока : 423 Мбайт (14%)
    Выравнивание : Разделение по промежуткам
    Продолжительность промежутка : 42 мс. (1,00 видеокадр)
    Время предзагрузки промежутка : 500 мс.
    Аудио #2
    Идентификатор : 2
    Формат : AC-3
    Формат/Информация : Audio Coding 3
    Расширение режима : CM (complete main)
    Параметр Endianness формата : Big
    Идентификатор кодека : 2000
    Продолжительность : 2 ч. 12 м.
    Вид битрейта : Постоянный
    Битрейт : 384 Кбит/сек
    Каналы : 6 каналов
    Расположение каналов : Front: L C R, Side: L R, LFE
    Частота : 48,0 КГц
    Битовая глубина : 16 бит
    Метод сжатия : С потерями
    Размер потока : 363 Мбайт (12%)
    Выравнивание : Разделение по промежуткам
    Продолжительность промежутка : 42 мс. (1,00 видеокадр)
    Время предзагрузки промежутка : 500 мс.
    Аудио #3
    Идентификатор : 3
    Формат : AC-3
    Формат/Информация : Audio Coding 3
    Расширение режима : CM (complete main)
    Параметр Endianness формата : Big
    Идентификатор кодека : 2000
    Продолжительность : 2 ч. 12 м.
    Вид битрейта : Постоянный
    Битрейт : 384 Кбит/сек
    Каналы : 6 каналов
    Расположение каналов : Front: L C R, Side: L R, LFE
    Частота : 48,0 КГц
    Битовая глубина : 16 бит
    Метод сжатия : С потерями
    Размер потока : 363 Мбайт (12%)
    Выравнивание : Разделение по промежуткам
    Продолжительность промежутка : 42 мс. (1,00 видеокадр)
    Время предзагрузки промежутка : 500 мс.
    Скриншоты для ознакомления





    Релиз подготовил:
    Rip by:Vovan366
    Залил: Wazzzup RK
    Размер скачиваемого торрента: 2.94 GB (3159695360 Bytes)

    Великий уравнитель/The Equalizer (2014) BDRip от ExKinoRay | D, A | Лицензия скачать через торрент бесплатно
    загрузка...
    Рейтинг →
     (голосов: 1, оценка 3/5, голосовать можно 1 раз )

    Другие торренты по теме:

  • Праведник / Великий уравнитель (2014) HDRip скачать через торрент бесплатно
  • Великий уравнитель / The Equalizer торрент скачать бесплатно
  • Великий уравнитель / The Equalizer (2014) CAMRip торрент скачать бесплатно
  • Великий уравнитель / The Equalizer (2014) BDRip 720p | Звук с CAMRip скачать через торрент бесплатно
  • Великий уравнитель / The Equalizer (2014) HDRip | Есарев торрент скачать бесплатно
  • Великий уравнитель / The Equalizer (2014) BDRemux 1080p от ExKinoRay | Чистый звук скачать через торрент бесплатно
  • Великий уравнитель / The Equalizer (2014) BDRip 720p от HQCLUB | Лицензия скачать через торрент бесплатно
  • Великий уравнитель / The Equalizer (2014) BDRip от HQ-ViDEO | Лицензия скачать через торрент бесплатно


    • Комментарии (0):

      Информация

      Информация

        Посетители, находящиеся в группе Гости, не могут оставлять комментарии в данной новости.

        ↓ Меню



        ↓ Опрос

        А Вы добавили сайт в закладки?
        Да
        Не


        Top 10 за неделю (Фильмы)