.
Авторизация | Регистрация
» » Я – начало / I Origins (2014) НDRip от BitTracker | P | iTunes скачать через торрент бесплатно




    Я – начало / I Origins (2014) НDRip от BitTracker | P | iTunes скачать через торрент бесплатно

    Опубликовал: Админ | Дата: 27-02-2015, 11:10 | Просмотров: 179


    Детально о кино
    Русское название:Я – начало
    Русское название в мировом прокате:I Origins
    Создали в:2014
    Категория жанра:фантастика, драма
    Главный режиссер:Майк Кэхилл/Mike Cahill
    Актеры:Майкл Питт, Стивен Ян, Астрид Берже-Фрисби, Брит Марлинг, Дориен Маклоги, Чарльз В. Грэй, Джон Шиумо, Фараша Бэйлок, Ако, Кристофер Сантамария
    Сюжет фильма:
    Молекулярный биолог и его напарница по лаборатории делают потрясающее открытие, способное коренным образом изменить современное общество...

    Снималось в:США
    Киностудия:Bersin Pictures, Penny Jane Films, Verisimilitude, WeWork Studio
    Время просмотра:01:47:34
    Перевод текста:Профессиональное (многоголосое) iTunes
    Файл
    Кодек для видео:XviD
    Качество фильма:НDRip(Исх. BDRip 720p)
    Информация о видео:688x288 (2.39:1), 23.976 fps, XviD build 73 ~832 kbps avg, 0.18 bit/pixel
    Информация о звуке:48 kHz, MPEG Layer 3, 2 ch, ~128.00 kbps avg
    Субтитры:нет
    Семпл
    MediaInfo

    Общее
    Полное имя : S:ФильмыЯ - Начало. 2014. HDRip. (AleksSin).avi
    Формат : AVI
    Формат/Информация : Audio Video Interleave
    Размер файла : 746 Мбайт
    Продолжительность : 1 ч. 47 м.
    Общий поток : 969 Кбит/сек
    Программа кодирования : VirtualDubMod 1.5.10.3 | www.virtualdub-fr.org || (build 2550/release)
    Библиотека кодирования : VirtualDubMod build 2550/release
    Видео
    Идентификатор : 0
    Формат : MPEG-4 Visual
    Профиль формата : Advanced Simple@L5
    Параметр BVOP формата : 1
    Параметр QPel формата : Нет
    Параметр GMC формата : Без точки перехода
    Параметр матрицы формата : Выборочная
    Идентификатор кодека : XVID
    Идентификатор кодека/Подсказка : XviD
    Продолжительность : 1 ч. 47 м.
    Битрейт : 832 Кбит/сек
    Ширина : 688 пикс.
    Высота : 288 пикс.
    Соотношение сторон : 2,40:1
    Частота кадров : 23,976 кадр/сек
    Цветовое пространство : YUV
    Подвыборка цветности : 4:2:0
    Битовая глубина : 8 бит
    Тип развёртки : Прогрессивная
    Метод сжатия : С потерями
    Бит/(Пиксели*Кадры) : 0.175
    Размер потока : 640 Мбайт (86%)
    Библиотека кодирования : XviD 73
    Аудио
    Идентификатор : 1
    Формат : MPEG Audio
    Версия формата : Version 1
    Профиль формата : Layer 3
    Идентификатор кодека : 55
    Идентификатор кодека/Подсказка : MP3
    Продолжительность : 1 ч. 47 м.
    Вид битрейта : Постоянный
    Битрейт : 128 Кбит/сек
    Каналы : 2 канала
    Частота : 48,0 КГц
    Метод сжатия : С потерями
    Размер потока : 98,5 Мбайт (13%)
    Выравнивание : Соединение по промежуткам
    Продолжительность промежутка : 42 мс. (1,00 видеокадр)
    Время предзагрузки промежутка : 504 ms
    Библиотека кодирования : LAME3.99r
    Залил: fedorjuk
    Размер скачиваемого торрента: 745.60 MB (781813760 Bytes)


    Я – начало/I Origins (2014) НDRip от BitTracker | P | iTunes скачать через торрент бесплатно
    загрузка...
    Рейтинг →
     (голосов: 1, оценка 3/5, голосовать можно 1 раз )

    Другие торренты по теме:



      Комментарии (0):

      Информация

      Информация

        Посетители, находящиеся в группе Гости, не могут оставлять комментарии в данной новости.

        ↓ Меню



        ↓ Опрос

        А Вы добавили сайт в закладки?
        Да
        Не


        Top 10 за неделю (Фильмы)