.
Авторизация | Регистрация
Хочешь лучшие торренты? Добавь свой email!
Добавить
» » Деньги, деньги, еще деньги / Mo Money (1992) HDTVRip от Leon-masl | P, A торрент скачать бесплатно




    Деньги, деньги, еще деньги / Mo Money (1992) HDTVRip от Leon-masl | P, A торрент скачать бесплатно

    Опубликовал: Админ | Дата: 27-02-2015, 11:10 | Просмотров: 255


    Детально о кино
    Русское название:Деньги, деньги, еще деньги/Больше денег
    Русское название в мировом прокате:Mo; Money
    Создали в:1992
    Категория жанра:Комедия
    Главный режиссер:Питер МакДоналд/Peter MacDonald
    Актеры:Дэймон Уэйэнс,Марлон Уэйэнс, Стейси Дэш, Джо Сантос, Джон Дил, Гарри Дж. Ленникс, Марк Бельцман, Куинси Вонг, Кевин Кэйси, Ларри Бранденбург
    Сюжет фильма:
    Молодой парень вместе со своим братом зарабатывают на жизнь мелким мошенничеством. Полицейский, бывший партнер его покойного отца наставляет парня на путь истинный, но на работу в банковскую компанию он устраивается, чтобы охмурить симпатичную сотрудницу. Он впутывается в опасную махинацию с кредитными карточками, в результате чего последние полчаса экранного времени заняты кровавыми разборками с мордобоем и стрельбой.

    Снималось в:США
    Время просмотра:01:26:03
    Перевод текста:Профессиональный (многоголосый закадровый), Авторский (одноголосый закадровый) Алексей Михалёв
    Файл
    Кодек для видео:XviD
    Качество фильма:HDTVRip
    Информация о видео:704x384, 25.000 fps, XviD build 73, 1866 kbps
    Информация о звуке 1:48 kHz, AC3 Dolby Digital, 2/0 (L,R) ch, 192.00 kbps.....Профессиональный (многоголосый закадровый)
    Информация о звуке 2:48 kHz, AC3 Dolby Digital, 2/0 (L,R) ch, 192.00 kbps.....Алексей Михалёв
    MI
    Общее
    Полное имя : MoMoney 1992_HDTVRip.avi
    Формат : AVI
    Формат/Информация : Audio Video Interleave
    Размер файла : 1,36 Гбайт
    Продолжительность : 1 ч. 26 м.
    Общий поток : 2264 Кбит/сек
    Программа кодирования : VirtualDubMod 1.5.10.2 (build 2542/release)
    Библиотека кодирования : VirtualDubMod build 2542/release
    Видео
    Идентификатор : 0
    Формат : MPEG-4 Visual
    Профиль формата : Advanced Simple@L5
    Параметр BVOP формата : 1
    Параметр QPel формата : Нет
    Параметр GMC формата : Без точки перехода
    Параметр матрицы формата : Выборочная
    Идентификатор кодека : XVID
    Идентификатор кодека/Подсказка : XviD
    Продолжительность : 1 ч. 26 м.
    Битрейт : 1866 Кбит/сек
    Ширина : 704 пикс.
    Высота : 384 пикс.
    Соотношение сторон : 16:9
    Частота кадров : 25,000 кадр/сек
    Цветовое пространство : YUV
    Подвыборка цветности : 4:2:0
    Битовая глубина : 8 бит
    Тип развёртки : Прогрессивная
    Метод сжатия : С потерями
    Бит/(Пиксели*Кадры) : 0.276
    Размер потока : 1,12 Гбайт (82%)
    Библиотека кодирования : XviD 73
    Аудио #1
    Идентификатор : 1
    Формат : AC-3
    Формат/Информация : Audio Coding 3
    Расширение режима : CM (complete main)
    Идентификатор кодека : 2000
    Продолжительность : 1 ч. 26 м.
    Вид битрейта : Постоянный
    Битрейт : 192 Кбит/сек
    Канал(ы) : 2 канала(ов)
    Расположение каналов : Front: L R
    Частота : 48,0 КГц
    Битовая глубина : 16 бит
    Метод сжатия : С потерями
    Размер потока : 118 Мбайт (8%)
    Выравнивание : Разделение по промежуткам
    Продолжительность промежутка : 40 мс. (1,00 видеокадр)
    Время предзагрузки промежутка : 500 ms
    Аудио #2
    Идентификатор : 2
    Формат : AC-3
    Формат/Информация : Audio Coding 3
    Расширение режима : CM (complete main)
    Идентификатор кодека : 2000
    Продолжительность : 1 ч. 26 м.
    Вид битрейта : Постоянный
    Битрейт : 192 Кбит/сек
    Канал(ы) : 2 канала(ов)
    Расположение каналов : Front: L R
    Частота : 48,0 КГц
    Битовая глубина : 16 бит
    Метод сжатия : С потерями
    Размер потока : 118 Мбайт (8%)
    Выравнивание : Разделение по промежуткам
    Продолжительность промежутка : 40 мс. (1,00 видеокадр)
    Время предзагрузки промежутка : 500 ms
    Скриншоты для ознакомления

    Релиз подготовил:Leon-masl
    Залил: leon-masl
    Размер скачиваемого торрента: 1.36 GB (1461467136 Bytes)

    Деньги, деньги, еще деньги/Mo Money (1992) HDTVRip от Leon-masl | P, A торрент скачать бесплатно
    загрузка...
    Рейтинг →
     (голосов: 1, оценка 5/5, голосовать можно 1 раз )

    Другие торренты по теме:



      Комментарии (0):

      Информация

      Информация

        Посетители, находящиеся в группе Гости, не могут оставлять комментарии в данной новости.

        ↓ Меню



        ↓ Опрос

        А Вы добавили сайт в закладки?
        Да
        Не


        Top 10 за месяц (Фильмы)