.
Авторизация | Регистрация
Хочешь лучшие торренты? Добавь свой email!
Добавить
» » Люблю твою жену / The Right Kind of Wrong (2013) BDRip-AVC от New-Team | лицензия скачать через торрент бесплатно




    Люблю твою жену / The Right Kind of Wrong (2013) BDRip-AVC от New-Team | лицензия скачать через торрент бесплатно

    Опубликовал: Админ | Дата: 27-02-2015, 11:10 | Просмотров: 148

    Он встретил любовь всей своей жизни... на её свадьбе

    Снималось в: Канада/Nomadic Pictures, Serendipity Point Films
    Категория жанра: мелодрама, комедия
    Создали в: 2013
    Время просмотра: 01:37:10
    Перевод текста:Профессиональный (дублированный)
    Субтитры подготовлены: английские
    Оригинальная аудиодорожка: английский
    Главный режиссер: Джеримайя С. Чечик/Jeremiah S. Chechik
    Актеры: Райан Квантен, Сара Каннинг, Райан МакПартлин, Кристен Хагер, Джеймс А. Вудс, Рауль Банеджа, Дженнифер Бэкстер, Уилл Сассо, Кэтрин О’Хара, Мария Менунос...
    Сюжет: Это история о писателе Лео, который вынужден мыть посуду, чтобы свести концы с концами. Помимо этого его бывшая жена выставляет все его многочисленные недостатки на суд общественности в своем супер-знаменитом блоге Почему ты мудак. Но вот Лео встречает Коллет — девушку своей мечты. Теперь он сделает все, чтобы завоевать ее и заставит весь мир понять, как все заблуждались на его счет.

    Качество фильма: BDRip-AVC /DVD5 R5 от CD Land- Лицензионный диск + Lublu.tvou.zheny.2013.D.BDRip.1080p.mkv
    Тип видео: MKV
    Информация о видео: 1024x424 (2.40:1), MPEG-4 AVC 2309 Кбит/сек/23.976 fps/Бит/(Пиксели*Кадры) : 0.222
    Информация о звуке 1: Dolby Digital Audio Russian 448 kbps/5.1/48 kHz
    Информация о звуке 2: Dolby Digital Audio English 448 kbps/5.1/48 kHz
    Тип видео субтитров: SoftSub (srt)
    Дополнительно: Фильм разбит на главы, как на оригинальном Blu-ray диске
    Раздача от:
    MediaInfo

    General
    Format : Matroska
    Format version : Version 4/Version 2
    File size : 2.17 GiB
    Duration : 1h 37mn
    Overall bit rate : 3 202 Kbps
    Encoded date : UTC 2014-12-20 13:39:11
    Writing application : mkvmerge v7.4.0 (;Circles;) 64bit built on Dec 12 2014 12:19:56
    Writing library : libebml v1.3.0 + libmatroska v1.4.1
    _STATISTICS_WRITING_APP : mkvmerge v7.4.0 (;Circles;) 64bit built on Dec 12 2014 12:19:56
    _STATISTICS_WRITING_DATE_UTC : 2014-12-20 13:39:11
    _STATISTICS_TAGS : BPS DURATION NUMBER_OF_FRAMES NUMBER_OF_BYTES
    DURATION : 01:37:10.336000000
    NUMBER_OF_FRAMES : 182198
    NUMBER_OF_BYTES : 326498816
    Video
    ID : 1
    Format : AVC
    Format/Info : Advanced Video Codec
    Format profile : High@L4.1
    Format settings, CABAC : Yes
    Format settings, ReFrames : 8 frames
    Codec ID : V_MPEG4/ISO/AVC
    Duration : 1h 37mn
    Bit rate : 2 309 Kbps
    Width : 1 024 pixels
    Height : 424 pixels
    Display aspect ratio : 2.40:1
    Frame rate mode : Constant
    Frame rate : 23.976 fps
    Color space : YUV
    Chroma subsampling : 4:2:0
    Bit depth : 8 bits
    Scan type : Progressive
    Bits/(Pixel*Frame) : 0.222
    Stream size : 1.52 GiB (70%)
    Writing library : x264 core 138 r2356 a1d3d17
    Encoding settings : cabac=1/ref=8/deblock=1:-3:-2/analyse=0x3:0x113/me=umh/subme=10/psy=1/psy_rd=1.00:0.05/mixed_ref=1/me_range=32/chroma_me=1/trellis=2/8x8dct=1/cqm=0/deadzone=21,11/fast_pskip=0/chroma_qp_offset=-3/threads=9/lookahead_threads=1/sliced_threads=0/nr=0/decimate=0/interlaced=0/bluray_compat=0/constrained_intra=0/bframes=8/b_pyramid=2/b_adapt=2/b_bias=0/direct=3/weightb=1/open_gop=0/weightp=2/keyint=240/keyint_min=24/scenecut=40/intra_refresh=0/rc_lookahead=40/rc=2pass/mbtree=1/bitrate=2309/ratetol=1.0/qcomp=0.60/qpmin=0/qpmax=69/qpstep=4/cplxblur=20.0/qblur=0.5/ip_ratio=1.40/aq=1:1.00
    Language : English
    Default : Yes
    Forced : No
    DURATION : 01:37:10.325000000
    NUMBER_OF_FRAMES : 139788
    NUMBER_OF_BYTES : 1678740671
    _STATISTICS_WRITING_APP : mkvmerge v7.4.0 (;Circles;) 64bit built on Dec 12 2014 12:19:56
    _STATISTICS_WRITING_DATE_UTC : 2014-12-20 13:39:11
    _STATISTICS_TAGS : BPS DURATION NUMBER_OF_FRAMES NUMBER_OF_BYTES
    Audio #1
    ID : 2
    Format : AC-3
    Format/Info : Audio Coding 3
    Mode extension : CM (complete main)
    Format settings, Endianness : Big
    Codec ID : A_AC3
    Duration : 1h 37mn
    Bit rate mode : Constant
    Bit rate : 448 Kbps
    Channel(s) : 6 channels
    Channel positions : Front: L C R, Side: L R, LFE
    Sampling rate : 48.0 KHz
    Bit depth : 16 bits
    Compression mode : Lossy
    Stream size : 311 MiB (14%)
    Language : Russian
    Default : Yes
    Forced : No
    Audio #2
    ID : 3
    Format : AC-3
    Format/Info : Audio Coding 3
    Mode extension : CM (complete main)
    Format settings, Endianness : Big
    Codec ID : A_AC3
    Duration : 1h 37mn
    Bit rate mode : Constant
    Bit rate : 448 Kbps
    Channel(s) : 6 channels
    Channel positions : Front: L C R, Side: L R, LFE
    Sampling rate : 48.0 KHz
    Bit depth : 16 bits
    Compression mode : Lossy
    Stream size : 311 MiB (14%)
    Language : English
    Default : No
    Forced : No
    Text
    ID : 4
    Format : UTF-8
    Codec ID : S_TEXT/UTF8
    Codec ID/Info : UTF-8 Plain Text
    Default : No
    Forced : No
    Menu
    00:00:00.000 : en:00:00:00.000
    00:08:31.094 : en:00:08:31.094
    00:16:44.754 : en:00:16:44.754
    00:25:14.722 : en:00:25:14.722
    00:33:58.954 : en:00:33:58.954
    00:41:14.806 : en:00:41:14.806
    00:50:32.112 : en:00:50:32.112
    00:58:49.860 : en:00:58:49.860
    01:06:16.556 : en:01:06:16.556
    01:14:33.844 : en:01:14:33.844
    01:23:25.542 : en:01:23:25.542
    01:32:40.930 : en:01:32:40.930

    Скриншоты для ознакомления:



    Размер скачиваемого торрента: 2.17 GB (2333269842 Bytes)

    Люблю твою жену/The Right Kind of Wrong (2013) BDRip-AVC от New-Team | лицензия скачать через торрент бесплатно
    загрузка...
    Рейтинг →
     (голосов: 1, оценка 3/5, голосовать можно 1 раз )

    Другие торренты по теме:

  • Люблю твою жену (2014) скачать через торрент бесплатно
  • Люблю твою жену / The Right Kind of Wrong скачать через торрент бесплатно
  • Люблю твою жену / The Right Kind of Wrong (2013) HDRip | Чистый звук скачать через торрент бесплатно
  • Люблю твою жену / The Right Kind of Wrong (2013) DVD5 от New-Team | D | Лицензия


    • Комментарии (0):

      Информация

      Информация

        Посетители, находящиеся в группе Гости, не могут оставлять комментарии в данной новости.

        ↓ Меню



        ↓ Опрос

        А Вы добавили сайт в закладки?
        Да
        Не


        Top 10 за месяц (Фильмы)