.
Авторизация | Регистрация
Хочешь лучшие торренты? Добавь свой email!
Добавить
» » Хитмэн / Hitman (2007) DVD5 | D скачать через торрент бесплатно




    Хитмэн / Hitman (2007) DVD5 | D скачать через торрент бесплатно

    Опубликовал: Админ | Дата: 27-02-2015, 11:10 | Просмотров: 230


    Детально о кино
    Русское название:Хитмэн
    Русское название в мировом прокате:Hitman
    Создали в:2007
    Категория жанра:боевик, триллер, драма, криминал
    Главный режиссер:Ксавье Жанс
    Актеры:Тимоти Олифант, Дюгрей Скотт, Ольга Куриленко, Роберт Неппер, Ульрих Томсен, Генри Йен Кьюсик, Михаэль Оффей, Кристиан Эриксон, Эрик Эбони, Джо Шеридан
    Сюжет фильма:
    Хитмэн был обучен, как высоко профессиональный убийца, чье самое мощное оружие — это хладнокровие и безмерная гордость за свою работу. 47 — это две последние цифры на штрихкоде, вытатуированном на его затылке, а также его единственное имя.
    Но охотник становится добычей, когда 47-й оказывается втянутым в политические интриги. Интерпол и русские военные начинают охоту на киллера по всей восточной Европе, в то время как он сам пытается понять, кто его подставил и почему они пытаются вывести его из игры. Но самую большую угрозу для 47-го представляет волнение его совести и незнакомые эмоции, пробудившиеся в нем после встречи с прекрасной девушкой…


    лицам до 17 лет обязательно присутствие взрослого
    Снималось в:Франция, США
    Киностудия:20th Century Fox Film Corporation
    Время просмотра:89 мин./01:29
    Перевод текста:полное дублирование
    Бонусы:Фотогалерея, Анонсы
    Файл
    Кодек для видео:MPEG2
    Качество фильма:DVD5
    Информация о видео:PAL 16:9 (720x576@1024x576) VBR 4968 Kbps, 25.000 fps
    Информация о звуке 1:Dolby AC3, 6 ch, 48.0 KHz, 384 Kbpsрусский
    Информация о звуке 2:DTS 6 ch, 48.0 KHz, 755 Kbpsрусский
    Субтитры:русские, украинские, казахские
    MediaInfo
    General
    Complete name : E:Hitmen.2007.D.DVDVIDEOVTS_01_1.VOB
    Format : MPEG-PS
    File size : 1 024 MiB
    Duration : 22mn 58s
    Overall bit rate mode : Variable
    Overall bit rate : 6 230 Kbps
    Video
    ID : 224 (0xE0)
    Format : MPEG Video
    Format version : Version 2
    Format profile : Main@Main
    Format settings, BVOP : Yes
    Format settings, Matrix : Custom
    Format settings, GOP : M=3, N=15
    Duration : 22mn 58s
    Bit rate mode : Variable
    Bit rate : 4 968 Kbps
    Maximum bit rate : 7 500 Kbps
    Width : 720 pixels
    Height : 576 pixels
    Display aspect ratio : 16:9
    Frame rate : 25.000 fps
    Standard : PAL
    Color space : YUV
    Chroma subsampling : 4:2:0
    Bit depth : 8 bits
    Scan type : Progressive
    Scan order : Top Field First
    Compression mode : Lossy
    Bits/(Pixel*Frame) : 0.479
    Time code of first frame : 00:59:59:00
    Time code source : Group of pictures t_head
    Stream size : 816 MiB (80%)
    Audio #1
    ID : 189 (0xBD)-128 (0x80)
    Format : AC-3
    Format/Info : Audio Coding 3
    Mode extension : CM (complete main)
    Format settings, Endianness : Big
    Muxing mode : DVD-Video
    Duration : 22mn 58s
    Bit rate mode : Constant
    Bit rate : 384 Kbps
    Channel(s) : 6 channels
    Channel positions : Front: L C R, Side: L R, LFE
    Sampling rate : 48.0 KHz
    Bit depth : 16 bits
    Compression mode : Lossy
    Stream size : 63.1 MiB (6%)
    Audio #2
    ID : 189 (0xBD)-137 (0x89)
    Format : DTS
    Format/Info : Digital Theater Systems
    Mode : 16
    Format settings, Endianness : Big
    Muxing mode : DVD-Video
    Duration : 22mn 58s
    Bit rate mode : Constant
    Bit rate : 755 Kbps
    Channel(s) : 6 channels
    Channel positions : Front: L C R, Side: L R, LFE
    Sampling rate : 48.0 KHz
    Bit depth : 24 bits
    Compression mode : Lossy
    Stream size : 124 MiB (12%)
    Text #1
    ID : 189 (0xBD)-32 (0x20)
    Format : RLE
    Format/Info : Run-length encoding
    Muxing mode : DVD-Video
    Text #2
    ID : 189 (0xBD)-33 (0x21)
    Format : RLE
    Format/Info : Run-length encoding
    Muxing mode : DVD-Video
    Text #3
    ID : 189 (0xBD)-34 (0x22)
    Format : RLE
    Format/Info : Run-length encoding
    Muxing mode : DVD-Video
    Menu

    Скриншоты для ознакомления

    Залил: carisha
    Размер скачиваемого торрента: 4.25 GB (4558694400 Bytes)

    Хитмэн/Hitman (2007) DVD5 | D скачать через торрент бесплатно
    загрузка...
    Рейтинг →
     (голосов: 1, оценка 3/5, голосовать можно 1 раз )

    Другие торренты по теме:

  • Хитмэн / Hitman (2007) HDRip-AVC от WazZzup | P
  • Хитмэн / Hitman (2007) HDRip от Scarabey | D | Расширенная версия скачать через торрент бесплатно
  • Хитмэн / Hitman (2007) HDRip от Scarabey | D | Расширенная версия скачать через торрент бесплатно
  • Хитмэн / Hitman (2007) BDRip-HEVC 1080p от FREEISLAND | Unrated
  • Хитмэн / Hitman (2007) BDRip-AVC | D, P, A, L1 | Unrated
  • Хитмэн / Hitman (2007) BDRip 720p | дополнительные материалы
  • Хитмэн / Sat sau ji wong (1998) HDRip | A, P | Расширенная версия
  • Хитмэн: Агент 47 / Hitman: Agent 47 (2015) CAMRip *PROPER*


    • Комментарии (0):

      Информация

      Информация

        Посетители, находящиеся в группе Гости, не могут оставлять комментарии в данной новости.

        ↓ Меню



        ↓ Опрос

        А Вы добавили сайт в закладки?
        Да
        Не


        Top 10 за месяц (Фильмы)