.
Авторизация | Регистрация
Хочешь лучшие торренты? Добавь свой email!
Добавить
» » Лиллехаммер / Lilyhammer (2014) HDTVRip | Сербин скачать через торрент бесплатно




    Лиллехаммер / Lilyhammer (2014) HDTVRip | Сербин скачать через торрент бесплатно

    Опубликовал: Админ | Дата: 27-02-2015, 11:10 | Просмотров: 154

    Лиллехаммер ?

    Детально о кино:
    Оригинальное название:Лиллехаммер
    Оригинальное название:Lilyhammer
    Год выхода:2014
    Жанр:Драма, криминал, комедия
    Режиссер:Симен Алсвик, Лиза Мари Гамлем

    В ролях
    Стив Ван Зандт, Тронд Фёуса Аурвог, Мариан Саастад Оттесен, Стайнар Саген, Фридтьов Сохейм, Свен Нордин, Эни Кригсволл, Михаель Акхнес-Персон, Карре Хеллум, Томми Карлсен и др.

    Описание фильма:
    Тальяно сдал своего босса федералам, и теперь, в рамках программы по защите свидетелей, он переезжает в Лиллехаммер, небольшой норвежский городок, когда-то приютивший зимние олимпийские игры. Сам Фрэнк называет его Лилихэммером, отсюда и название сериала. Фрэнк мечтает о рае с чистым воздухом, белым снегом и клевыми телками, вдали от соблазнов Нью-Йорка и от карателей мафии. Реальность, конечно же, оказывается не такой, как мечты.


    Страна:США, Норвегия, Rubicon TV AS
    Продолжительность:~ 00:49:00 серия
    Перевод:Авторский одноголосый
    -Ю. Сербин
    Внимание !!! В сериале присутствует ненормативная лексика!

    Информация о файле:
    Кодек:XviD
    Формат:AVI
    Качество:HDTVRip
    Видео:MPEG4, XviD, 720x400 (16:9), 25.000 fps, 1 500 Kbps (0.208 bit/pixel)
    Аудио Rus:AC-3 Dolby Digital, 48.0 KHz, 2 ch, 192 Kbps, CBR

    Семпл
    ? Скриншоты

    ? Отчет MediaInfo
    General
    Complete name : F:СериалраздачаLilyhammer.S03.HDTVRip.SerbinLilyhammer.S03E01.HDTVRip.Serbin.avi
    Format : AVI
    Format/Info : Audio Video Interleave
    File size : 558 MiB
    Duration : 45mn 48s
    Overall bit rate : 1 701 Kbps
    Writing application : VirtualDubMod 1.5.10.2 (build 2540/release)
    Writing library : VirtualDubMod build 2540/release
    Video
    ID : 0
    Format : MPEG-4 Visual
    Format profile : Advanced Simple@L5
    Format settings, BVOP : Yes
    Format settings, QPel : No
    Format settings, GMC : No warppoints
    Format settings, Matrix : Default (H.263)
    Codec ID : XVID
    Codec ID/Hint : XviD
    Duration : 45mn 48s
    Bit rate : 1 500 Kbps
    Width : 720 pixels
    Height : 400 pixels
    Display aspect ratio : 16:9
    Frame rate : 25.000 fps
    Color space : YUV
    Chroma subsampling : 4:2:0
    Bit depth : 8 bits
    Scan type : Progressive
    Bits/(Pixel*Frame) : 0.208
    Stream size : 491 MiB (88%)
    Writing library : XviD 1.2.1 (UTC 2008-12-04)
    Audio
    ID : 1
    Format : AC-3
    Format/Info : Audio Coding 3
    Format profile : Dolby Digital
    Mode extension : CM (complete main)
    Codec ID : 2000
    Duration : 45mn 48s
    Bit rate mode : Constant
    Bit rate : 192 Kbps
    Channel(s) : 2 channels
    Channel positions : Front: L R
    Sampling rate : 48.0 KHz
    Bit depth : 16 bits
    Stream size : 62.9 MiB (11%)
    Alignment : Split accross interleaves
    Interleave, duration : 40 ms (1.00 video frame)
    Interleave, preload duration : 500 ms

    Размер скачиваемого торрента: 3.26 GB (3503704064 Bytes)

    Лиллехаммер/Lilyhammer (2014) HDTVRip | Сербин скачать через торрент бесплатно
    загрузка...
    Рейтинг →
     (голосов: 1, оценка 3/5, голосовать можно 1 раз )

    Другие торренты по теме:

  • Лиллехаммер / Lilyhammer (2012) WEB-DLRip-AVC | A
  • Лиллехаммер / Lilyhammer (2013) HDTVRip | Ю.Сербин скачать через торрент бесплатно
  • Лиллехаммер / Lilyhammer (2013) 720p | Ю.Сербин скачать через торрент бесплатно
  • Лиллехаммер / Lilyhammer (2013) HDTV 720p | Ю.Сербин
  • Лиллехаммер / Lilyhammer (2013) HDTVRip | Amedia
  • Лиллехаммер / Lilyhammer (2012-2013) BDRip 720p от MediaClub | P, A скачать через торрент бесплатно
  • Лиллехаммер / Lilyhammer (2012-2013) BDRip | АРК-ТВ скачать через торрент бесплатно
  • Лиллехаммер / Lilyhammer (2014) HDTVRip 720p от HDClub | Сербин скачать через торрент бесплатно


    • Комментарии (0):

      Информация

      Информация

        Посетители, находящиеся в группе Гости, не могут оставлять комментарии в данной новости.

        ↓ Меню



        ↓ Опрос

        А Вы добавили сайт в закладки?
        Да
        Не


        Top 10 за месяц (Фильмы)