.
Авторизация | Регистрация
Хочешь лучшие торренты? Добавь свой email!
Добавить
» » Общак / The Drop (2014) WEB-DLRip от BitTracker | iTunes торрент скачать бесплатно




    Общак / The Drop (2014) WEB-DLRip от BitTracker | iTunes торрент скачать бесплатно

    Опубликовал: Админ | Дата: 27-02-2015, 11:10 | Просмотров: 116


    Детально о кино
    Русское название:Общак
    Русское название в мировом прокате:The Drop
    Создали в:2014
    Категория жанра:драма, криминал
    Главный режиссер:Михаэль Р. Роскам

    Актеры
    Том Харди, Нуми Рапас, Джеймс Гандольфини, Маттиас Шонартс, Джон Ортис, Элизабет Родригес, Майкл Аронов, Морган Спектор, Майкл Эспер, Росс Бикелл

    Сюжет фильма

    Боб Сагиновски оказывается в центре ограбления, из-за расследования которого может всплыть прошлое района, когда друзья, семьи и заклятые враги — все работали вместе, чтобы выжить…

    Снималось в:США
    Время просмотра:01:47:00
    Перевод текста:ДублированноеiTunes
    Файл
    Кодек для видео:XviD
    Качество фильма:WEB-DLRip(Исх. WEB-DL 720р)
    Информация о видео:656x272 (2.41:1), 23.976 fps, XviD build 73 ~776 kbps avg, 0.18 bit/pixel
    Информация о звуке:48 kHz, MPEG Layer 3, 2 ch, ~128.00 kbps avg
    Субтитры:нет
    Семпл
    MediaInfo

    Общее
    Полное имя : S:ФильмыОбщак. 2014. WEB-DLRip. (AleksSin).avi
    Формат : AVI
    Формат/Информация : Audio Video Interleave
    Размер файла : 699 Мбайт
    Продолжительность : 1 ч. 47 м.
    Общий поток : 913 Кбит/сек
    Программа кодирования : VirtualDubMod 1.5.10.3 | www.virtualdub-fr.org || (build 2550/release)
    Библиотека кодирования : VirtualDubMod build 2550/release
    Видео
    Идентификатор : 0
    Формат : MPEG-4 Visual
    Профиль формата : Advanced Simple@L5
    Параметр BVOP формата : 1
    Параметр QPel формата : Нет
    Параметр GMC формата : Без точки перехода
    Параметр матрицы формата : Выборочная
    Идентификатор кодека : XVID
    Идентификатор кодека/Подсказка : XviD
    Продолжительность : 1 ч. 47 м.
    Битрейт : 776 Кбит/сек
    Ширина : 656 пикс.
    Высота : 272 пикс.
    Соотношение сторон : 2,40:1
    Частота кадров : 23,976 кадр/сек
    Цветовое пространство : YUV
    Подвыборка цветности : 4:2:0
    Битовая глубина : 8 бит
    Тип развёртки : Прогрессивная
    Метод сжатия : С потерями
    Бит/(Пиксели*Кадры) : 0.181
    Размер потока : 594 Мбайт (85%)
    Библиотека кодирования : XviD 73
    Аудио
    Идентификатор : 1
    Формат : MPEG Audio
    Версия формата : Version 1
    Профиль формата : Layer 3
    Идентификатор кодека : 55
    Идентификатор кодека/Подсказка : MP3
    Продолжительность : 1 ч. 46 м.
    Вид битрейта : Постоянный
    Битрейт : 128 Кбит/сек
    Каналы : 2 канала
    Частота : 48,0 КГц
    Метод сжатия : С потерями
    Размер потока : 97,5 Мбайт (14%)
    Выравнивание : Соединение по промежуткам
    Продолжительность промежутка : 42 мс. (1,00 видеокадр)
    Время предзагрузки промежутка : 504 ms
    Библиотека кодирования : LAME3.99r
    Залил: *AleksSin*
    Размер скачиваемого торрента: 698.75 MB (732692480 Bytes)


    Общак/The Drop (2014) WEB-DLRip от BitTracker | iTunes торрент скачать бесплатно
    загрузка...
    Рейтинг →
     (голосов: 1, оценка 4/5, голосовать можно 1 раз )

    Другие торренты по теме:

  • Общак / The Drop (2014) WEB-DLRip | iTunes скачать через торрент бесплатно
  • Общак / The Drop (2014) BDRip 720p | KinoGadget | iPad
  • Общак / The Drop (2014) BDRip-AVC от HELLYWOOD | iTunes
  • Общак / The Drop (2014) BDRip 720p | Лицензия | D, A
  • Общак / The Drop (2014) BDRip 1080p от ExKinoRay | D, A | Лицензия
  • Общак / The Drop (2014) BDRip 720p от Hot-Film | D, A
  • Общак / The Drop (2014) BDRip 720p от Leonardo and Scarabey | Лицензия скачать через торрент бесплатно
  • Общак / The Drop (2014) BDRip от HQCLUB | Лицензия


    • Комментарии (0):

      Информация

      Информация

        Посетители, находящиеся в группе Гости, не могут оставлять комментарии в данной новости.

        ↓ Меню



        ↓ Опрос

        А Вы добавили сайт в закладки?
        Да
        Не


        Top 10 за месяц (Фильмы)