.
Авторизация | Регистрация
Хочешь лучшие торренты? Добавь свой email!
Добавить
» » Теория заговора / Zulu (2013) BDRip 1080p | Р, P2 скачать через торрент бесплатно




    Теория заговора / Zulu (2013) BDRip 1080p | Р, P2 скачать через торрент бесплатно

    Опубликовал: Админ | Дата: 27-02-2015, 11:10 | Просмотров: 165



    Детально о кино
    Русское название: Теория заговора
    Русское название в мировом прокате: Zulu
    Создали в: 2013
    Категория жанра:триллер, драма, криминал
    Главный режиссер: Жером Салль

    Актеры
    Орландо Блум, Форест Уитакер, Таня ван Граан, Наташа Лоринг, Роксанна Прентис, Патрик Листер, Свен Рюйгрок, Келси Иган, Конрад Кемп, Лизе Слэббер


    Сюжет фильма
    Действия фильма происходят в наше время в Южно-Африканской Республике, где продолжает существовать принудительная политика отделения нескольких групп населения. Браян Эпик — детектив полиции, в жизни которого наступил не очень хороший период: его бросила супруга, он не может найти общий язык с сыном и постоянно вынужден пропадать на работе, поскольку у него накопилось много дел. Вместе со своим напарником Али, порядочным семьянином и отцом двух детей, он приступает к новому расследованию, в котором им необходимо найти убийцу молодой девушки, труп которой обнаружили в ботаническом саду города. Однако раскрыть это преступление будет очень не просто, поскольку им придется столкнуться с очень влиятельными людьми Кейптауна...



    Снималось в: Франция, ЮАР
    Время просмотра: 01:46:42
    Перевод текста:Профессиональный(многоголосый, закадровый)-Лицензия
    Профессиональный(двухголосый, закадровый)-Пиратская Студия

    Файл
    Качество фильма:BDRip 1080p
    Тип видео: MKV
    Информация о видео: MPEG4/AVC, 1920x804 (2.40:1), 6112 Кбит/сек, 24.000 кадра/сек
    Информация о звуке 1: AC3, 6 каналов, 448 Кбит/сек |Русский - Лицензия
    Информация о звуке 2: AC3, 6 каналов, 448 Кбит/сек |Русский - Пиратская Студия
    Информация о звуке 3: AC3, 6 каналов, 640 Кбит/сек |Английский
    Субтитры: Русские, английские (форс., полные)
    Навигация по главам: Есть

    MediaInfo:
    Общее
    Уникальный идентификатор : 201989796524089527277303742136365778454 (0x97F5D1DBB3D1CBA1A9259F6F60FA8616)
    Полное имя : Zulu. (2013) BDRip 1080p.mkv
    Формат : Matroska
    Версия формата : Version 2
    Размер файла : 5,81 Гбайт
    Продолжительность : 1 ч. 46 м.
    Общий поток : 7794 Кбит/сек
    Название фильма : Zulu. 2013
    Дата кодирования : UTC 2014-12-26 12:26:54
    Программа кодирования : mkvmerge v5.8.0 (;No Sleep/Pillow;) built on Sep 2 2012 15:37:04
    Библиотека кодирования : libebml v1.2.3 + libmatroska v1.3.0

    Видео
    Идентификатор : 1
    Формат : AVC
    Формат/Информация : Advanced Video Codec
    Профиль формата : High@L4.1
    Параметр CABAC формата : Да
    Параметр ReFrames формата : 5 кадров
    Идентификатор кодека : V_MPEG4/ISO/AVC
    Продолжительность : 1 ч. 46 м.
    Битрейт : 6103 Кбит/сек
    Ширина : 1920 пикселей
    Высота : 804 пикселя
    Соотношение сторон : 2,40:1
    Режим частоты кадров : Постоянный
    Частота кадров : 24,000 кадра/сек
    Цветовое пространство : YUV
    Субдискретизация насыщенности : 4:2:0
    Битовая глубина : 8 бит
    Тип развёртки : Прогрессивная
    Бит/(Пиксели*Кадры) : 0.165
    Размер потока : 4,55 Гбайт (78%)
    Заголовок : MarGe@AF
    Библиотека кодирования : x264 core 138 r2358 9e941d1
    Настройки программы : cabac=1/ref=5/deblock=1:-3:-3/analyse=0x3:0x133/me=umh/subme=10/psy=1/psy_rd=1.02:0.05/mixed_ref=0/me_range=32/chroma_me=1/trellis=2/8x8dct=1/cqm=0/deadzone=21,11/fast_pskip=0/chroma_qp_offset=-2/threads=6/lookahead_threads=1/sliced_threads=0/nr=0/decimate=1/interlaced=0/bluray_compat=0/constrained_intra=0/bframes=8/b_pyramid=2/b_adapt=2/b_bias=0/direct=2/weightb=1/open_gop=0/weightp=2/keyint=240/keyint_min=24/scenecut=40/intra_refresh=0/rc_lookahead=60/rc=crf/mbtree=1/crf=17.5/qcomp=0.60/qpmin=0/qpmax=69/qpstep=4/vbv_maxrate=50000/vbv_bufsize=62500/crf_max=0.0/nal_hrd=none/ip_ratio=1.40/aq=1:1.00
    Язык : English
    Default : Да
    Forced : Нет

    Аудио #1
    Идентификатор : 2
    Формат : AC-3
    Формат/Информация : Audio Coding 3
    Расширение режима : CM (complete main)
    Параметр Endianness формата : Big
    Идентификатор кодека : A_AC3
    Продолжительность : 1 ч. 46 м.
    Вид битрейта : Постоянный
    Битрейт : 448 Кбит/сек
    Каналы : 6 каналов
    Расположение каналов : Front: L C R, Side: L R, LFE
    Частота : 48,0 КГц
    Битовая глубина : 16 бит
    Метод сжатия : С потерями
    Размер потока : 342 Мбайт (6%)
    Заголовок : MVO | License - R5
    Язык : Russian
    Default : Да
    Forced : Нет

    Аудио #2
    Идентификатор : 3
    Формат : AC-3
    Формат/Информация : Audio Coding 3
    Расширение режима : CM (complete main)
    Параметр Endianness формата : Big
    Идентификатор кодека : A_AC3
    Продолжительность : 1 ч. 46 м.
    Вид битрейта : Постоянный
    Битрейт : 448 Кбит/сек
    Каналы : 6 каналов
    Расположение каналов : Front: L C R, Side: L R, LFE
    Частота : 48,0 КГц
    Битовая глубина : 16 бит
    Метод сжатия : С потерями
    Размер потока : 342 Мбайт (6%)
    Заголовок : P2 | Пиратская Студия
    Язык : Russian
    Default : Нет
    Forced : Нет

    Аудио #3
    Идентификатор : 4
    Формат : AC-3
    Формат/Информация : Audio Coding 3
    Расширение режима : CM (complete main)
    Параметр Endianness формата : Big
    Идентификатор кодека : A_AC3
    Продолжительность : 1 ч. 46 м.
    Вид битрейта : Постоянный
    Битрейт : 640 Кбит/сек
    Каналы : 6 каналов
    Расположение каналов : Front: L C R, Side: L R, LFE
    Частота : 48,0 КГц
    Битовая глубина : 16 бит
    Метод сжатия : С потерями
    Размер потока : 488 Мбайт (8%)
    Заголовок : Original
    Язык : English
    Default : Нет
    Forced : Нет

    Текст #1
    Идентификатор : 5
    Формат : UTF-8
    Идентификатор кодека : S_TEXT/UTF8
    Идентификатор кодека/Информация : UTF-8 Plain Text
    Заголовок : Full
    Язык : Russian
    Default : Нет
    Forced : Нет

    Текст #2
    Идентификатор : 6
    Формат : UTF-8
    Идентификатор кодека : S_TEXT/UTF8
    Идентификатор кодека/Информация : UTF-8 Plain Text
    Заголовок : Forced
    Язык : English
    Default : Нет
    Forced : Нет

    Текст #3
    Идентификатор : 7
    Формат : UTF-8
    Идентификатор кодека : S_TEXT/UTF8
    Идентификатор кодека/Информация : UTF-8 Plain Text
    Заголовок : Full
    Язык : English
    Default : Нет
    Forced : Нет

    Меню
    00:00:00.000 : :00:00:00.000
    00:07:30.792 : :00:07:30.792
    00:11:38.000 : :00:11:38.000
    00:18:56.542 : :00:18:56.542
    00:24:27.542 : :00:24:27.542
    00:33:06.542 : :00:33:06.542
    00:39:21.875 : :00:39:21.875
    00:45:32.125 : :00:45:32.125
    00:52:12.458 : :00:52:12.458
    00:59:17.000 : :00:59:17.000
    01:02:42.750 : :01:02:42.750
    01:10:39.833 : :01:10:39.833
    01:16:03.375 : :01:16:03.375
    01:23:05.500 : :01:23:05.500
    01:29:59.625 : :01:29:59.625
    01:42:30.750 : :01:42:30.750



    Релиз подготовил:
    Размер скачиваемого торрента: 5.81 GB (6237312140 Bytes)

    Теория заговора/Zulu (2013) BDRip 1080p | Р, P2 скачать через торрент бесплатно
    загрузка...
    Рейтинг →
     (голосов: 1, оценка 4/5, голосовать можно 1 раз )

    Другие торренты по теме:

  • Теория Заговора / Conspiracy Theory (1997) DVDRip-AVC
  • Теория заговора: Источник жизни (2011) TVRip
  • Теория заговора: Легендарное царство (2011) TVRip
  • Теория заговора: Тайна симферопольского вокзала (2011) TVRip
  • Теория заговора: Крымский след масонов (2011) TVRip
  • Теория заговора: Пути небесные (2011) TVRip
  • Теория заговора: Опознанные объекты (2011) TVRip
  • Теория заговора: Славяно-римская империя (2011) TVRip


    • Комментарии (0):

      Информация

      Информация

        Посетители, находящиеся в группе Гости, не могут оставлять комментарии в данной новости.

        ↓ Меню



        ↓ Опрос

        А Вы добавили сайт в закладки?
        Да
        Не


        Top 10 за месяц (Фильмы)