.
Авторизация | Регистрация
Хочешь лучшие торренты? Добавь свой email!
Добавить
» » Общак / The Drop (2014) BDRip 720p | KinoGadget | iPad торрент скачать бесплатно




    Общак / The Drop (2014) BDRip 720p | KinoGadget | iPad торрент скачать бесплатно

    Опубликовал: Админ | Дата: 27-02-2015, 11:10 | Просмотров: 175


    Создали в: 2014
    Снималось в: США
    Категория жанра: драма, криминал
    Время просмотра: 01:46:44
    Перевод текста: Дублированный
    Главный режиссер: Михаэль Р. Роскам

    Актеры
    Том Харди, Нуми Рапас, Джеймс Гандольфини, Маттиас Шонартс, Джон Ортис, Элизабет Родригес, Майкл Аронов, Морган Спектор, Майкл Эспер, Росс Бикелл
    Описание: Боб Сагиновски оказывается в центре ограбления, из-за расследования которого может всплыть прошлое района, когда друзья, семьи и заклятые враги — все работали вместе, чтобы выжить…

    Рейтинг R получают фильмы, в содержании которых обязательно содержится материал, предназначенный только для взрослой аудитории. Родителям рекомендуется хорошо подумать, прежде чем посмотреть такой фильм вместе со своими детьми.
    Фильм, получивший рейтинг R, скорее всего содержит сексуальные сцены, эпизоды с употреблением наркотиков, нецензурную брань, фрагменты с насилием и т.д.

    Информация о видео кодек:MPEG-4 AVC
    Качество фильма:BDRip 720p
    Параметры Видео:1280x536, 23.976 fps; ~1 838 kbps avg
    Параметры Звука:48.0 KHz, AAC, ~125.00 kbps avg, 2ch
    Тип видео:mp4
    Релиз:
    Meta Tags


    MI
    General
    Complete name : E:Obshak.2014.D.BDRip.720p_KinoGadget.mp4
    Format : MPEG-4
    Format profile : Base Media
    Codec ID : isom
    File size : 1.47 GiB
    Duration : 1h 46mn
    Overall bit rate mode : Variable
    Overall bit rate : 1 970 Kbps
    Movie name : Общак
    Performer : Михаэль Р. Роскам
    Genre : Crime, Drama
    ContentType : Short Film
    Recorded date : 2014
    Encoded date : UTC 2015-01-01 05:18:40
    Tagged date : UTC 2015-01-01 07:57:10
    Cover : Yes
    ContentRating : mpaa|R|400|
    LongDeion : Боб Сагиновски оказывается в центре ограбления, из-за расследования которого может всплыть прошлое района, когда друзья, семьи и заклятые враги — все работали вместе, чтобы выжить…
    HDVideo : Yes
    Video
    ID : 1
    Format : AVC
    Format/Info : Advanced Video Codec
    Format profile : High@L4.1
    Format settings, CABAC : Yes
    Format settings, ReFrames : 12 frames
    Codec ID : avc1
    Codec ID/Info : Advanced Video Coding
    Duration : 1h 46mn
    Bit rate : 1 838 Kbps
    Maximum bit rate : 10.9 Mbps
    Width : 1 280 pixels
    Height : 536 pixels
    Display aspect ratio : 2.40:1
    Frame rate mode : Constant
    Frame rate : 23.976 fps
    Color space : YUV
    Chroma subsampling : 4:2:0
    Bit depth : 8 bits
    Scan type : Progressive
    Bits/(Pixel*Frame) : 0.112
    Stream size : 1.37 GiB (93%)
    Writing library : x264 core 130 r2273 b3065e6
    Encoding settings : cabac=1/ref=12/deblock=1:-1:-1/analyse=0x3:0x133/me=umh/subme=10/psy=1/psy_rd=1.00:0.20/mixed_ref=1/me_range=24/chroma_me=1/trellis=2/8x8dct=1/cqm=0/deadzone=21,11/fast_pskip=1/chroma_qp_offset=-3/threads=3/lookahead_threads=1/sliced_threads=0/nr=0/decimate=1/interlaced=0/bluray_compat=0/constrained_intra=0/bframes=8/b_pyramid=2/b_adapt=2/b_bias=0/direct=3/weightb=1/open_gop=0/weightp=2/keyint=250/keyint_min=23/scenecut=40/intra_refresh=0/rc_lookahead=60/rc=crf/mbtree=1/crf=18.0/qcomp=0.60/qpmin=0/qpmax=69/qpstep=4/ip_ratio=1.40/aq=1:0.80
    Encoded date : UTC 2015-01-01 05:18:40
    Tagged date : UTC 2015-01-01 05:19:46
    Audio
    ID : 2
    Format : AAC
    Format/Info : Advanced Audio Codec
    Format profile : LC
    Codec ID : 40
    Duration : 1h 46mn
    Bit rate mode : Variable
    Bit rate : 125 Kbps
    Maximum bit rate : 220 Kbps
    Channel count : 2 channels
    Original Channel count : 6 channels
    Channel positions : Front: L C R, Side: L R, LFE
    Sampling rate : 48.0 KHz
    Compression mode : Lossy
    Delay relative to video : 125ms
    Stream size : 95.2 MiB (6%)
    Encoded date : UTC 2015-01-01 05:19:40
    Tagged date : UTC 2015-01-01 05:19:46

    Скриншоты


    Залил: KinoGadget
    Размер скачиваемого торрента: 1.47 GB (1577321741 Bytes)

    Общак/The Drop (2014) BDRip 720p | KinoGadget | iPad торрент скачать бесплатно
    загрузка...
    Рейтинг →
     (голосов: 1, оценка 5/5, голосовать можно 1 раз )

    Другие торренты по теме:

  • Общак / The Drop (2014) WEB-DLRip | iTunes скачать через торрент бесплатно
  • Общак / The Drop (2014) WEB-DLRip от BitTracker | iTunes
  • Общак / The Drop (2014) BDRip-AVC от HELLYWOOD | iTunes
  • Общак / The Drop (2014) BDRip 720p | Лицензия | D, A
  • Общак / The Drop (2014) BDRip 1080p от ExKinoRay | D, A | Лицензия
  • Общак / The Drop (2014) BDRip 720p от Hot-Film | D, A
  • Общак / The Drop (2014) BDRip 720p от Leonardo and Scarabey | Лицензия скачать через торрент бесплатно
  • Общак / The Drop (2014) BDRip от HQCLUB | Лицензия


    • Комментарии (0):

      Информация

      Информация

        Посетители, находящиеся в группе Гости, не могут оставлять комментарии в данной новости.

        ↓ Меню



        ↓ Опрос

        А Вы добавили сайт в закладки?
        Да
        Не


        Top 10 за месяц (Фильмы)