.
Авторизация | Регистрация
Хочешь лучшие торренты? Добавь свой email!
Добавить
» » Объятия вампира / Embrace Of The Vampire (2013) HDRip-AVC | iTunes скачать через торрент бесплатно




    Объятия вампира / Embrace Of The Vampire (2013) HDRip-AVC | iTunes скачать через торрент бесплатно

    Опубликовал: Админ | Дата: 27-02-2015, 11:10 | Просмотров: 145


    Детально о кино
    Русское название: Объятия вампира
    Русское название в мировом прокате: Embrace Of The Vampire
    Создали в: 2013
    Категория жанра: Ужасы
    Главный режиссер: Карл Бессай

    Актеры
    Шэрон Хинендэйл Каньехтио Хорн С.С. Шеффилд Челси Рейст Виктор Уэбстер Роберт Молони Райан Кеннеди Киган Коннор Трейси Оливия Ченг Клер Смитис

    Сюжет фильма
    Наше время. В колледж в небольшом городке приезжает учиться Шарлотта, с виду обычная девушка. Но у неё странная болезнь крови. Может, поэтому её мучают видения и странные ночные кошмары, после которых она просыпается не в своей постели, а где-нибудь на улице...


    Снималось в: Канада, Bloodline Pictures
    Время просмотра: 01:31:18
    Тип перевода:Профессиональное (многоголосое) iTunes
    Файл
    Тип видео: MKV
    Качество фильма: HDRip-AVC
    Информация о видео: 1898 kb/s, 1024x576
    Информация о звуке: AC3, 384 kb/s (6 ch )


    MI

    Format : Matroska
    Format version : Version 4/Version 2
    File size : 1.45 GiB
    Duration : 1h 31mn
    Overall bit rate : 2 271 Kbps
    Movie name : Rip by 03nazar03
    Encoded date : UTC 2015-01-06 13:47:44
    Writing application : mkvmerge v6.1.0 (;Old Devil;) built on Mar 4 2013 09:10:42
    Writing library : libebml v1.3.0 + libmatroska v1.4.0
    Video
    ID : 1
    Format : AVC
    Format/Info : Advanced Video Codec
    Format profile : High@L4.1
    Format settings, CABAC : Yes
    Format settings, ReFrames : 11 frames
    Codec ID : V_MPEG4/ISO/AVC
    Duration : 1h 31mn
    Bit rate : 1 898 Kbps
    Width : 1 024 pixels
    Height : 576 pixels
    Display aspect ratio : 16:9
    Frame rate : 23.976 fps
    Color space : YUV
    Chroma subsampling : 4:2:0
    Bit depth : 8 bits
    Scan type : Progressive
    Bits/(Pixel*Frame) : 0.134
    Stream size : 1.17 GiB (81%)
    Writing library : x264 core 130 r2273 b3065e6
    Encoding settings : cabac=1/ref=11/deblock=1:-3:-3/analyse=0x3:0x133/me=umh/subme=11/psy=1/psy_rd=1.00:0.20/mixed_ref=1/me_range=48/chroma_me=1/trellis=2/8x8dct=1/cqm=0/deadzone=21,11/fast_pskip=0/chroma_qp_offset=-3/threads=18/lookahead_threads=3/sliced_threads=0/nr=0/decimate=0/interlaced=0/bluray_compat=0/constrained_intra=0/bframes=8/b_pyramid=2/b_adapt=2/b_bias=0/direct=3/weightb=1/open_gop=0/weightp=2/keyint=250/keyint_min=23/scenecut=40/intra_refresh=0/rc=2pass/mbtree=0/bitrate=1898/ratetol=1.0/qcomp=0.60/qpmin=0/qpmax=69/qpstep=4/cplxblur=20.0/qblur=0.5/ip_ratio=1.40/pb_ratio=1.30/aq=1:1.00
    Language : English
    Default : Yes
    Forced : No
    Audio
    ID : 2
    Format : AC-3
    Format/Info : Audio Coding 3
    Mode extension : CM (complete main)
    Format settings, Endianness : Big
    Codec ID : A_AC3
    Duration : 1h 31mn
    Bit rate mode : Constant
    Bit rate : 384 Kbps
    Channel(s) : 6 channels
    Channel positions : Front: L C R, Side: L R, LFE
    Sampling rate : 48.0 KHz
    Bit depth : 16 bits
    Compression mode : Lossy
    Stream size : 251 MiB (17%)
    Language : Russian
    Default : Yes
    Forced : No
    Menu
    00:00:00.000 : en:00:00:00.000
    00:08:12.534 : en:00:08:12.534
    00:17:26.504 : en:00:17:26.504
    00:28:59.321 : en:00:28:59.321
    00:37:50.018 : en:00:37:50.018
    00:44:26.497 : en:00:44:26.497
    00:50:49.088 : en:00:50:49.088
    00:58:01.937 : en:00:58:01.937
    01:04:22.358 : en:01:04:22.358
    01:10:14.210 : en:01:10:14.210
    01:18:59.318 : en:01:18:59.318
    01:27:11.893 : en:01:27:11.893
    Скриншоты

    Размер скачиваемого торрента: 1.45 GB (1555167294 Bytes)

    Объятия вампира/Embrace Of The Vampire (2013) HDRip-AVC | iTunes скачать через торрент бесплатно
    загрузка...
    Рейтинг →
     (голосов: 1, оценка 5/5, голосовать можно 1 раз )

    Другие торренты по теме:

  • Объятия вампира / Embrace Of The Vampire (2013) HDRip | L1
  • Объятия вампира / Embrace Of The Vampire (2013) BDRip 720p | L1
  • Объятия вампира / Embrace Of The Vampire (2013) HDRip-AVC | L1
  • Объятия вампира / Embrace Of The Vampire (2013) BDRip 720p от CINEMANIA | L1 скачать через торрент бесплатно
  • Объятия вампира / Embrace Of The Vampire (2013) BDRip 1080p от CINEMANIA | L1 скачать через торрент бесплатно


    • Комментарии (0):

      Информация

      Информация

        Посетители, находящиеся в группе Гости, не могут оставлять комментарии в данной новости.

        ↓ Меню



        ↓ Опрос

        А Вы добавили сайт в закладки?
        Да
        Не


        Top 10 за месяц (Фильмы)