.
Авторизация | Регистрация
» » Царь скорпионов 4: Утерянный трон / The Scorpion King: The Lost Throne (2014) HDRip от BitTracker | BaiBaKo скачать через торрент бесплатно




    Царь скорпионов 4: Утерянный трон / The Scorpion King: The Lost Throne (2014) HDRip от BitTracker | BaiBaKo скачать через торрент бесплатно

    Опубликовал: Админ | Дата: 27-02-2015, 11:10 | Просмотров: 140


    Детально о кино
    Русское название:Царь скорпионов 4: Утерянный трон
    Русское название в мировом прокате:The Scorpion King: The Lost Throne
    Создали в:2014
    Категория жанра:драма, комедия, мелодрама, биография
    Главный режиссер:боевик

    Актеры
    Ройс Грейси, Эсме Бьянко, Майкл Бин, Бэрри Боствик, Стивен Данливи, Грант Эллиотт, Лу Ферриньо, Ли Гилл, Роджер Халстон, Брэндон Хардести

    Сюжет фильма

    В очередной киноленте про Царя скорпионов увидим мы как от своего трона отстранённый король-воин Матайюс решение принимает отправиться на страшное самое и ужасное задание жизни своей . Все это Матайюс сделать решает ради того, чтобы мир на земле его снова возродился. Все вроде бы своим шло чередом, но однажды от Матайюса его самый близкий отворачивается и лучший друг, такого никак он не мог предвидеть. Теперь самолично герой должен страшному противостоять злодею, который на все готов только бы убить его. Сможет ли Матайюс, все свои приложив силы, своему противнику противостоять ?! И добьётся ли герой наш того, ради чего отважился он на битву эту , наступит ли на его земле умиротворение?

    Снималось в:США
    Время просмотра:01:44:51
    Перевод текста:Любительское (многоголосное)BaiBaKo
    Файл
    Кодек для видео:XviD
    Качество фильма:НDRip(Исх. BDRip 720p)
    Информация о видео:624x352 (1.77:1), 23.976 fps, XviD build 73 ~856 kbps avg, 0.16 bit/pixel
    Информация о звуке:48 kHz, MPEG Layer 3, 2 ch, ~128.00 kbps avg
    Субтитры:нет
    Семпл
    MediaInfo

    Общее
    Полное имя : S:ФильмыЦарь скорпионов 4. Утерянный трон. 2015. HDRip. (AleksSin).avi
    Формат : AVI
    Формат/Информация : Audio Video Interleave
    Размер файла : 745 Мбайт
    Продолжительность : 1 ч. 44 м.
    Общий поток : 993 Кбит/сек
    Программа кодирования : VirtualDubMod 1.5.10.3 | www.virtualdub-fr.org || (build 2550/release)
    Библиотека кодирования : VirtualDubMod build 2550/release
    Видео
    Идентификатор : 0
    Формат : MPEG-4 Visual
    Профиль формата : Advanced Simple@L5
    Параметр BVOP формата : 1
    Параметр QPel формата : Нет
    Параметр GMC формата : Без точки перехода
    Параметр матрицы формата : Выборочная
    Идентификатор кодека : XVID
    Идентификатор кодека/Подсказка : XviD
    Продолжительность : 1 ч. 44 м.
    Битрейт : 856 Кбит/сек
    Ширина : 624 пикс.
    Высота : 352 пикс.
    Соотношение сторон : 16:9
    Частота кадров : 23,976 кадр/сек
    Цветовое пространство : YUV
    Подвыборка цветности : 4:2:0
    Битовая глубина : 8 бит
    Тип развёртки : Прогрессивная
    Метод сжатия : С потерями
    Бит/(Пиксели*Кадры) : 0.162
    Размер потока : 642 Мбайт (86%)
    Библиотека кодирования : XviD 73
    Аудио
    Идентификатор : 1
    Формат : MPEG Audio
    Версия формата : Version 1
    Профиль формата : Layer 3
    Идентификатор кодека : 55
    Идентификатор кодека/Подсказка : MP3
    Продолжительность : 1 ч. 44 м.
    Вид битрейта : Постоянный
    Битрейт : 128 Кбит/сек
    Каналы : 2 канала
    Частота : 48,0 КГц
    Метод сжатия : С потерями
    Размер потока : 96,0 Мбайт (13%)
    Выравнивание : Соединение по промежуткам
    Продолжительность промежутка : 42 мс. (1,00 видеокадр)
    Время предзагрузки промежутка : 504 ms
    Библиотека кодирования : LAME3.99r
    Залил: *AleksSin*
    Размер скачиваемого торрента: 744.79 MB (780967936 Bytes)


    Царь скорпионов 4: Утерянный трон/The Scorpion King: The Lost Throne (2014) HDRip от BitTracker | BaiBaKo скачать через торрент бесплатно
    загрузка...
    Рейтинг →
     (голосов: 1, оценка 4/5, голосовать можно 1 раз )

    Другие торренты по теме:

  • Царь Скорпионов / The Scorpion King (2002) HDRip-AVC торрент скачать бесплатно
  • Царь скорпионов 4: Утерянный трон / The Scorpion King: The Lost Throne / 2014 / ДБ / HDRip скачать торрент бесплатно
  • Царь скорпионов 4: Утерянный трон / The Scorpion King: The Lost Throne (2015) BDRip от HQCLUB | Лицензия скачать торрент бесплатно
  • Царь скорпионов 4: Утерянный трон / The Scorpion King: The Lost Throne (2015) BDRip-AVC | D скачать торрент бесплатно


    • Комментарии (0):

      Информация

      Информация

        Посетители, находящиеся в группе Гости, не могут оставлять комментарии в данной новости.

        ↓ Меню



        ↓ Опрос

        А Вы добавили сайт в закладки?
        Да
        Не


        Top 10 за неделю (Фильмы)