.
Авторизация | Регистрация
» » Возвращение (1940) SATRip от New-Team скачать через торрент бесплатно




    Возвращение (1940) SATRip от New-Team скачать через торрент бесплатно

    Опубликовал: Админ | Дата: 27-02-2015, 11:10 | Просмотров: 143


    Снималось в: СССР
    Создали в: Ленфильм
    Категория жанра: мелодрама
    Создали в: 1940
    Время просмотра: 01:11:34
    Перевод текста:Не требуется
    Субтитры подготовлены: нет
    Оригинальная аудиодорожка: русский
    Главный режиссер: Ян Фрид

    Актеры

    Николай Симонов, Татьяна Гурецкая, Владимир Тумаларьянц, Лидия Карташова, Александр Чистяков, Владимир Лукин, Вадик Федотов, Константин Злобин, Борис Пославский, Георгий Семёнов, Александр Гай...
    Описание:
    Маленький Никита сбегает из дома и отправляется в Арктику на поиски отца, которого никогда не видел…



    Источник:DVB
    Качество фильма видео:SATRip
    Тип видео видео: AVI
    Виде: 704x528 (4:3), 25 fps, XviD ~ 1319 kbps avg, 0.142 bit/pixel
    Информация о звуке: 48 kHz, MP3 2.0, 128 kbps
    Раздача от:
    MediaInfo

    Общее
    Полное имя : Vozvrashhenie.1940.SATRip-745_New-team_by_AVP_Studio.avi
    Формат : AVI
    Формат/Информация : Audio Video Interleave
    Размер файла : 746 Мбайт
    Продолжительность : 1 ч. 11 м.
    Общий поток : 1457 Кбит/сек
    Программа кодирования : VirtualDubModRus 1.5.10.2 (build 2542/release)
    Библиотека кодирования : VirtualDubMod build 2542/release
    Видео
    Идентификатор : 0
    Формат : MPEG-4 Visual
    Профиль формата : Advanced Simple@L5
    Параметр BVOP формата : 1
    Параметр QPel формата : Нет
    Параметр GMC формата : Без точки перехода
    Параметр матрицы формата : Выборочная
    Идентификатор кодека : XVID
    Идентификатор кодека/Подсказка : XviD
    Продолжительность : 1 ч. 11 м.
    Битрейт : 1319 Кбит/сек
    Ширина : 704 пикселя
    Высота : 528 пикселей
    Соотношение сторон : 4:3
    Частота кадров : 25,000 кадров/сек
    Цветовое пространство : YUV
    Субдискретизация насыщенности : 4:2:0
    Битовая глубина : 8 бит
    Тип развёртки : Прогрессивная
    Метод сжатия : С потерями
    Бит/(Пиксели*Кадры) : 0.142
    Размер потока : 675 Мбайт (91%)
    Библиотека кодирования : XviD 73
    Аудио
    Идентификатор : 1
    Формат : MPEG Audio
    Версия формата : Version 1
    Профиль формата : Layer 3
    Идентификатор кодека : 55
    Идентификатор кодека/Подсказка : MP3
    Продолжительность : 1 ч. 11 м.
    Вид битрейта : Постоянный
    Битрейт : 128 Кбит/сек
    Каналы : 2 канала
    Частота : 48,0 КГц
    Метод сжатия : С потерями
    Размер потока : 65,5 Мбайт (9%)
    Выравнивание : Соединение по промежуткам
    Продолжительность промежутка : 40 мс. (1,00 видеокадр)
    Время предзагрузки промежутка : 504 мс.
    Библиотека кодирования : LAME3.99r
    Залил: AVPStudio
    Размер скачиваемого торрента: 745.87 MB (782096384 Bytes)


    Возвращение (1940) SATRip от New-Team скачать через торрент бесплатно
    загрузка...
    Рейтинг →
     (голосов: 1, оценка 4/5, голосовать можно 1 раз )

    Другие торренты по теме:

  • Возвращение на базу / Взвейся в небо / R2B: Return 2 Base / Soar Into The Sun (2012) BDRip 1080p торрент скачать бесплатно
  • Питер Пэн / Питер Пэн 2: Возвращение в Нетландию / Peter Pan / Return to Never Land / Дилогия / Dilogy (1953-2002) BDRip 1080p от Youtracker торрент скачать бесплатно
  • S.T.A.L.K.E.R.: Тень Чернобыля - Возвращение Шрама (2012) PC | RePack от SeregA-Lus торрент скачать бесплатно
  • Возвращение высокого блондина / Le retour du grand blond (1974) WEB-DLRip торрент скачать бесплатно
  • Возвращение Фантоцци / Fantozzi - Il ritorno (1996) DVDRip | P торрент скачать бесплатно
  • Месть / Возвращение / The Return (2006) BDRip от Rulya74 торрент скачать бесплатно
  • Возвращение кота / Neko no Ongaeshi / The Cat Returns (2002) HDTVRip 720p торрент скачать бесплатно
  • Властелин колец: Возвращение Короля / The Lord of the Rings: The Return of the King (2003) BDRip 1080p Extended Edition торрент скачать бесплатно


    • Комментарии (0):

      Информация

      Информация

        Посетители, находящиеся в группе Гости, не могут оставлять комментарии в данной новости.

        ↓ Меню



        ↓ Опрос

        А Вы добавили сайт в закладки?
        Да
        Не


        Top 10 за неделю (Фильмы)