.
Авторизация | Регистрация
Хочешь лучшие торренты? Добавь свой email!
Добавить
» » Яков Свердлов (1940) DVDRip от New-Team скачать через торрент бесплатно




    Яков Свердлов (1940) DVDRip от New-Team скачать через торрент бесплатно

    Опубликовал: Админ | Дата: 27-02-2015, 11:10 | Просмотров: 172


    Снималось в: СССР
    Создали в: Союздетфильм
    Категория жанра: приключения
    Создали в: 1940
    Время просмотра: 01:42:01
    Перевод текста:Не требуется
    Субтитры подготовлены: нет
    Оригинальная аудиодорожка: русский
    Главный режиссер: Сергей Юткевич

    Актеры

    Максим Штраух, Леонид Любашевский, Андро Кобаладзе, Павел Кадочников, М. Марков, Владимир Владиславский, Николай Горлов, Александр Гречаный, Евгений Гуров, Константин Зубов, Николай Крючков, Иван Назаров, Николай Охлопков, Лев Потемкин, Ксения Тарасова, Ирина Федотова, Павел Шпрингфельд, Борис Тенин...
    Описание:
    О жизни и деятельности первого председателя ВЦИК Я. М. Свердлова (1885-1919).



    Источник:DVD5 R5
    Качество фильма видео:DVDRip
    Тип видео видео: AVI
    Виде: 688x512 (4:3), 25 fps, XviD ~ 1841 kbps avg, 0.209 bit/pixel
    Информация о звуке: 48 kHz, Dolby Digital AC3 2.0, 192 kbps
    Раздача от:
    MediaInfo

    Общее
    Полное имя : Yakov.Sverdlov.1940.DVDRip_New-team_by_AVP_Studio.avi
    Формат : AVI
    Формат/Информация : Audio Video Interleave
    Размер файла : 1,46 Гбайт
    Продолжительность : 1 ч. 42 м.
    Общий поток : 2043 Кбит/сек
    Программа кодирования : VirtualDubModRus 1.5.10.2 (build 2542/release)
    Библиотека кодирования : VirtualDubMod build 2542/release
    Видео
    Идентификатор : 0
    Формат : MPEG-4 Visual
    Профиль формата : Advanced Simple@L5
    Параметр BVOP формата : 1
    Параметр QPel формата : Нет
    Параметр GMC формата : Без точки перехода
    Параметр матрицы формата : Выборочная
    Идентификатор кодека : XVID
    Идентификатор кодека/Подсказка : XviD
    Продолжительность : 1 ч. 42 м.
    Битрейт : 1841 Кбит/сек
    Ширина : 688 пикселей
    Высота : 512 пикселей
    Соотношение сторон : 4:3
    Частота кадров : 25,000 кадров/сек
    Цветовое пространство : YUV
    Субдискретизация насыщенности : 4:2:0
    Битовая глубина : 8 бит
    Тип развёртки : Прогрессивная
    Метод сжатия : С потерями
    Бит/(Пиксели*Кадры) : 0.209
    Размер потока : 1,31 Гбайт (90%)
    Библиотека кодирования : XviD 73
    Аудио
    Идентификатор : 1
    Формат : AC-3
    Формат/Информация : Audio Coding 3
    Расширение режима : CM (complete main)
    Параметр Endianness формата : Big
    Идентификатор кодека : 2000
    Продолжительность : 1 ч. 42 м.
    Вид битрейта : Постоянный
    Битрейт : 192 Кбит/сек
    Каналы : 2 канала
    Расположение каналов : Front: L R
    Частота : 48,0 КГц
    Битовая глубина : 16 бит
    Метод сжатия : С потерями
    Размер потока : 140 Мбайт (9%)
    Выравнивание : Разделение по промежуткам
    Продолжительность промежутка : 40 мс. (1,00 видеокадр)
    Время предзагрузки промежутка : 500 мс

    Скриншоты



    Залил: AVPStudio
    Размер скачиваемого торрента: 1.46 GB (1563035648 Bytes)

    Яков Свердлов (1940) DVDRip от New-Team скачать через торрент бесплатно
    загрузка...
    Рейтинг →
     (голосов: 1, оценка 3/5, голосовать можно 1 раз )

    Другие торренты по теме:

  • Яков лжец / Jakob the Liar (1999) Web-DL 720 | P скачать через торрент бесплатно
  • Яков Браславский - С улыбкой на лице
  • Яков Браславский - Друг Волокитин и Я
  • Яков Браславский - Как хотел я быть известным
  • Яков Браславский - Начало всех начал
  • Яков Браславский - Для К. Беляева и А. Волокитина
  • Яков Браславский - Алжирский концерт
  • Канторович Яков - Процессы о колдовстве в Европе и Российской империи (2014) PDF, DjVu


    • Комментарии (0):

      Информация

      Информация

        Посетители, находящиеся в группе Гости, не могут оставлять комментарии в данной новости.

        ↓ Меню



        ↓ Опрос

        А Вы добавили сайт в закладки?
        Да
        Не


        Top 10 за месяц (Фильмы)