.
Авторизация | Регистрация
Хочешь лучшие торренты? Добавь свой email!
Добавить
» » Ночной портье / Il portiere di notte (1974) BDRip 1080p by msltel | P, P2, A, L1 скачать через торрент бесплатно




    Ночной портье / Il portiere di notte (1974) BDRip 1080p by msltel | P, P2, A, L1 скачать через торрент бесплатно

    Опубликовал: Админ | Дата: 27-02-2015, 11:10 | Просмотров: 150


    Создали в: 1974
    Снималось в: Италия
    Категория жанра: драма
    Время просмотра: 01:58:04
    Перевод текста: профессиональный многоголосый, профессиональный двухголосый, авторский, любительский одноголосый
    Субтитры: русские, английские (для слабослышащих)
    Главный режиссёр: Лилиана Кавани

    Актеры
    Дирк Богард, Шарлотта Рэмплинг, Филипп Леруа, Габриэле Ферцетти, Джузеппе Аддоббати, Иза Миранда, Нино Биньямини, Марино Мазе, Амедео Амодио, Пьеро Вида
    Описание: 1957 год. В венском отеле случайно встречаются бывший нацист и бывшая заключённая концлагеря. Пробудившиеся воспоминания палача и жертвы разжигают между ними странное, противоестественное влечение, которое психоаналитик назвал бы садомазохизмом...

    Качество фильма: BDRip 1080pСравнение с исходником
    Тип видео: MKV
    Информация о видео кодек: H.264
    Информация о звуке кодек: AC3, DTS
    Информация о видео: 16.3 Mбит/с, 1920x1038, 23.976 кадра/с, 0.342 bpp
    Информация о звуке 1:русский, AC3, 192 kbps, 6 ch, 48 kHz профессиональный многоголосый, Спб, 5 канал
    Информация о звуке 2:русский, AC3, 192 kbps, 6 ch, 48 kHz профессиональный двухголосый, Интервидео
    Информация о звуке 3:русский, AC3, 192 kbps, 6 ch, 48 kHz авторский, Андрей Гаврилов
    Отдельные файлы
    Информация о звуке:русский, DTS, 768 kbps, 2 ch, 48 kHz авторский, Владимир Завгородний
    Информация о звуке:русский, DTS, 768 kbps, 2 ch, 48 kHz авторский, Сергей Визгунов
    Информация о звуке:русский, AC3, 192 kbps, 2 ch, 48 kHz любительский одноголосый
    Информация о звуке:английский, DTS, 768 kbps, 2 ch, 48 kHz оригинал
    Имеются неименованные главы/чаптеры.
    MediaInfo
    Общее
    Полное имя : D:VideoNochnoj portje.1974.BDRip.1080pNochnoj portje.1974.AVO.rus.В.Завгородний.dts
    Формат : DTS
    Формат/Информация : Digital Theater Systems
    Размер файла : 649 Мбайт
    Продолжительность : 1 ч. 58 м.
    Режим общего битрейта : Постоянный
    Общий поток : 768 Кбит/сек
    Аудио
    Формат : DTS
    Формат/Информация : Digital Theater Systems
    Режим : 16
    Параметр Endianness формата : Big
    Продолжительность : 1 ч. 58 м.
    Вид битрейта : Постоянный
    Битрейт : 768 Кбит/сек
    Каналы : 2 канала
    Расположение каналов : Front: L R
    Частота : 48,0 КГц
    Битовая глубина : 16 бит
    Метод сжатия : С потерями
    Размер потока : 649 Мбайт (100%)
    Общее
    Полное имя : D:VideoNochnoj portje.1974.BDRip.1080pNochnoj portje.1974.AVO.rus.С.Визгунов.dts
    Формат : DTS
    Формат/Информация : Digital Theater Systems
    Размер файла : 649 Мбайт
    Продолжительность : 1 ч. 58 м.
    Режим общего битрейта : Постоянный
    Общий поток : 768 Кбит/сек
    Аудио
    Формат : DTS
    Формат/Информация : Digital Theater Systems
    Режим : 16
    Параметр Endianness формата : Big
    Продолжительность : 1 ч. 58 м.
    Вид битрейта : Постоянный
    Битрейт : 768 Кбит/сек
    Каналы : 2 канала
    Расположение каналов : Front: L R
    Частота : 48,0 КГц
    Битовая глубина : 16 бит
    Метод сжатия : С потерями
    Размер потока : 649 Мбайт (100%)
    Общее
    Уникальный идентификатор : 183388278737550117745316014332414025783 (0x89F74C3926341650852753769A9C6037)
    Полное имя : D:VideoNochnoj portje.1974.BDRip.1080pNochnoj portje.1974.BDRip.1080p.mkv
    Формат : Matroska
    Версия формата : Version 4/Version 2
    Размер файла : 14,2 Гбайт
    Продолжительность : 1 ч. 58 м.
    Общий поток : 17,2 Мбит/сек
    Дата кодирования : UTC 2015-01-14 10:54:02
    Программа кодирования : mkvmerge v7.5.0 (;Glass Culture;) 64bit built on Jan 4 2015 16:48:44
    Библиотека кодирования : libebml v1.3.1 + libmatroska v1.4.2
    DURATION : 01:58:04.544000000
    NUMBER_OF_FRAMES : 221392
    NUMBER_OF_BYTES : 170029056
    _STATISTICS_WRITING_APP : mkvmerge v7.5.0 (;Glass Culture;) 64bit built on Jan 4 2015 16:48:44
    _STATISTICS_WRITING_DATE_UTC : 2015-01-14 10:54:02
    _STATISTICS_TAGS : BPS DURATION NUMBER_OF_FRAMES NUMBER_OF_BYTES
    Видео
    Идентификатор : 1
    Формат : AVC
    Формат/Информация : Advanced Video Codec
    Профиль формата : High@L4.1
    Параметр CABAC формата : Да
    Параметр ReFrames формата : 4 кадра
    Идентификатор кодека : V_MPEG4/ISO/AVC
    Продолжительность : 1 ч. 58 м.
    Битрейт : 16,3 Мбит/сек
    Ширина : 1920 пикселей
    Высота : 1038 пикселей
    Соотношение сторон : 1,85:1
    Режим частоты кадров : Постоянный
    Частота кадров : 23,976 кадра/сек
    Цветовое пространство : YUV
    Субдискретизация насыщенности : 4:2:0
    Битовая глубина : 8 бит
    Тип развёртки : Прогрессивная
    Бит/(Пиксели*Кадры) : 0.342
    Размер потока : 13,5 Гбайт (95%)
    Заголовок : BDRip -- STarankov
    Библиотека кодирования : x264 core 142 r2431 ac76440
    Залил: msltel
    Размер скачиваемого торрента: 16.28 GB (17482845714 Bytes)


    Ночной портье/Il portiere di notte (1974) BDRip 1080p by msltel | P, P2, A, L1 скачать через торрент бесплатно
    загрузка...
    Рейтинг →
     (голосов: 1, оценка 3/5, голосовать можно 1 раз )

    Другие торренты по теме:

  • Ночной портье / Il portiere di notte / The Night Porter (1974) HDRip | P


    • Комментарии (0):

      Информация

      Информация

        Посетители, находящиеся в группе Гости, не могут оставлять комментарии в данной новости.

        ↓ Меню



        ↓ Опрос

        А Вы добавили сайт в закладки?
        Да
        Не


        Top 10 за месяц (Фильмы)