.
Авторизация | Регистрация
» » Любовь под прикрытием (2010) DVD-9 | Лицензия скачать через торрент бесплатно




    Любовь под прикрытием (2010) DVD-9 | Лицензия скачать через торрент бесплатно

    Опубликовал: Админ | Дата: 27-02-2015, 11:10 | Просмотров: 247


    Детально о кино
    Русское название: Любовь под прикрытием
    Создали в: 2010
    Категория жанра: Мелодрама, криминал, комедия
    Главный режиссёр: Александр Баранов

    Актеры
    Денис Никифоров, Ольга Красько, Павел Деревянко, Игорь Савочкин, Владимир Меньшов, Елена Дубровская, Михаил Богдасаров, Людмила Калмыкова, Екатерина Климова, Александр Робак, Владимир Русаков

    Сюжет фильма
    Судьба свела их в отделении милиции. Павел Угрюмов, только что освободившийся из тюрьмы, пришел вставать на учет. Молодая учительница Ксюша Веселова решила, наконец, написать заявление на соседа по коммуналке Костика, постоянно крадущего ее вещи. Последним его трофеем стала флэшка с очень важной информацией. Никогда ранее не имевшая дела с работниками правоохранительных органов, Ксюша приняла понуро сидящего субъекта за оперуполномоченного. А тот не стал убеждать в обратном сильно понравившуюся ему девушку и вызвался помочь…

    Снималось в: Россия, Production Value
    Время просмотра: 01:33:44
    Перевод текста: Не требуется
    Файл
    Качество фильма: DVD-9
    Информация о видео: PAL, MPEG2, 9000 Кбит/с, VBR, 720x576 (4:3), 25 кадр/с
    Информация о звуке: Русский, Dolby AC3, 48000 Гц, 192 Кбит/с, 2 канала (Стерео)
    Субтитры:Нет
    Меню:Русское, статичное
    Доп. материалы:Киножурнал (Анонсы фильмов на DVD)

    DVDInfo

    Title: Любовь под прикрытием
    Size: 6.30 Gb ( 6 605 780,00 KBytes ) - DVD-9
    Enabled regions: 1, 2, 3, 4, 5, 6, 7, 8
    VTS_01 :
    Play Length: 01:33:44
    Video: PAL 4:3 (720x576) VBR
    Audio:
    Russian (Dolby AC3, 2 ch)
    * Menus Information *
    VIDEO_TS Menu
    Video:
    PAL 4:3 (720x576) VBR
    Audio:
    Not specified (Dolby AC3, 2 ch)
    Russian Language Unit :
    Title Menu
    VTS_01 Menu
    Video:
    PAL 4:3 (720x576) VBR
    Audio:
    Not specified (Dolby AC3, 2 ch)
    Russian Language Unit :
    Root Menu
    Chapter (PTT) Menu
    MediaInfo

    General
    Complete name : VTS_01_1.VOB
    Format : MPEG-PS
    File size : 1 023 MiB
    Duration : 15mn 19s
    Overall bit rate : 9 340 Kbps
    Video
    ID : 224 (0xE0)
    Format : MPEG Video
    Format version : Version 2
    Format profile : Main@Main
    Format settings, BVOP : Yes
    Format settings, Matrix : Custom
    Duration : 15mn 19s
    Bit rate mode : Constant
    Bit rate : 9 000 Kbps
    Width : 720 pixels
    Height : 576 pixels
    Display aspect ratio : 4:3
    Frame rate : 25.000 fps
    Standard : PAL
    Color space : YUV
    Chroma subsampling : 4:2:0
    Bit depth : 8 bits
    Scan type : Interlaced
    Scan order : Top Field First
    Compression mode : Lossy
    Bits/(Pixel*Frame) : 0.868
    Stream size : 982 MiB (96%)
    Audio
    ID : 189 (0xBD)-128 (0x80)
    Format : AC-3
    Format/Info : Audio Coding 3
    Mode extension : CM (complete main)
    Muxing mode : DVD-Video
    Duration : 15mn 19s
    Bit rate mode : Constant
    Bit rate : 192 Kbps
    Channel(s) : 2 channels
    Channel positions : Front: L R
    Sampling rate : 48.0 KHz
    Bit depth : 16 bits
    Compression mode : Lossy
    Stream size : 21.0 MiB (2%)
    Menu
    Скриншоты



    Залил: ivandubskoj
    Размер скачиваемого торрента: 6.30 GB (6764318720 Bytes)

    Любовь под прикрытием (2010) DVD-9 | Лицензия скачать через торрент бесплатно
    загрузка...
    Рейтинг →
     (голосов: 1, оценка 3/5, голосовать можно 1 раз )

    Другие торренты по теме:

  • Ветковская Вера - Любовь под облаками (2013) MP3 торрент скачать бесплатно
  • Снайперы: Любовь под прицелом (2012) DVDRip-AVC от New-Team | лицензия торрент скачать бесплатно
  • Снайперы: Любовь под прицелом (2012) 2xDVD9 R5 от New-Team | лицензия торрент скачать бесплатно
  • Снайперы: Любовь под прицелом (2012) DVDRip от New-Team | лицензия торрент скачать бесплатно
  • Любовь под грифом Совершенно секретно (2008) DVD9 от New-Team скачать торрент бесплатно
  • Любовь под прикрытием / 2010 / РУ / DVD-9 скачать торрент бесплатно
  • Любовь под грифом «Совершенно секретно» 2 / 2009 / РУ / DVDRip скачать торрент бесплатно


    • Комментарии (0):

      Информация

      Информация

        Посетители, находящиеся в группе Гости, не могут оставлять комментарии в данной новости.

        ↓ Меню



        ↓ Опрос

        А Вы добавили сайт в закладки?
        Да
        Не


        Top 10 за неделю (Фильмы)