.
Авторизация | Регистрация
» » Пришельцы 2: Коридоры времени / Les visiteurs 2: Les couloirs du temps (1998) HDTVRip от Deadmauvlad | P | Open Matte скачать через торрент бесплатно




    Пришельцы 2: Коридоры времени / Les visiteurs 2: Les couloirs du temps (1998) HDTVRip от Deadmauvlad | P | Open Matte скачать через торрент бесплатно

    Опубликовал: Админ | Дата: 27-02-2015, 11:10 | Просмотров: 195

    Пришельцы 2: Коридоры времени/Les couloirs du temps: Les visiteurs II

    Снималось в: Франция
    Киностудия: Gaumont
    Категория жанра: комедия, семейный, фантастика
    Создали в:1998
    Время просмотра: 01:52:47
    Перевод текста:Профессиональный (многоголосый закадровый) - Амальгама/Союз/DVD-Group
    Главный режиссер: Жан-Мари Пуаре/Jean-Marie Poir?

    Актеры
    Кристиан Клавье, Жан Рено, Мюриэль Робен, Мари-Анн Шазель, Жан-Люк Карон, Патрик Бюржель, Эрик Аверлан, Армель, Пьер Виаль, Франк-Оливье Бонне

    Описание: Во втором фильме пришельцы из прошлого (Рено и Клавье) возвращаются в будущее за украденными драгоценностями и реликвиями, так как в противном случае одному из них не удастся жениться. В настоящем они опять попадают в вереницу нелепейших и смешных приключений, тогда как в прошлом чуть было не лишается жизни пришелец из будущего, потомок другого героя, попадая в лапы инквизиции. (Михаил Иванов)
    Качество фильмаHDTVRip Open Matte HDTV 1080i byxfiles
    Контейнер: AVI
    Информация о видео720x400 (1.80:1), 25 fps, XviD build 73 ~1639 kbps avg, 0.23 bit/pixel
    Информация о звуке № 1: Русский, 48 kHz, AC3 Dolby Digital, 3/2 (L,C,R,l,r) + LFE ch, ~384 kbps Многоголосый закадровый | Амальгама/Союз/DVD-Group
    Информация о звуке № 2: Французский, 48 kHz, AC3 Dolby Digital, 3/2 (L,C,R,l,r) + LFE ch, ~384 kbps Оригинал
    СубтитрыРусские,Английские,Французские
    MI
    Les.Couloirs.du.temps.Les.Visiteurs.2.P.1998.HDTVRip.Open.Matte.DedmauvladLes.Couloirs.du.temps.Les.Visiteurs.2.P.1998.HDTVRip.Open.Matte.Dedmauvlad.avi
    Формат : AVI
    Формат/Информация : Audio Video Interleave
    Профиль формата : OpenDML
    Размер файла : 2,17 Гбайт
    Продолжительность : 1 ч. 52 м.
    Общий поток : 2758 Кбит/сек
    Название фильма : Les.Couloirs.du.temps.Les.Visiteurs.2.P.1998.HDTVRip.Open.Matte.Dedmauvlad
    Режиссёр : Deadmauvlad
    Жанр : комедия, семейный, фантастик
    Программа кодирования : VirtualDubMod 1.5.10.3 | www.virtualdub-fr.org || (build 2550/release)
    Формат оригинала/Имя : Фильм
    Правообладатель : R.G Goldenshara/Deadmauvlad.tv
    Видео
    Идентификатор : 0
    Формат : MPEG-4 Visual
    Профиль формата : Advanced Simple@L5
    Параметр BVOP формата : 1
    Параметр QPel формата : Нет
    Параметр GMC формата : Без точки перехода
    Параметр матрицы формата : Выборочная
    Идентификатор кодека : XVID
    Идентификатор кодека/Подсказка : XviD
    Продолжительность : 1 ч. 52 м.
    Битрейт : 1971 Кбит/сек
    Ширина : 720 пикселей
    Высота : 400 пикселей
    Соотношение сторон : 16:9
    Частота кадров : 25,000 кадров/сек
    Цветовое пространство : YUV
    Субдискретизация насыщенности : 4:2:0
    Битовая глубина : 8 бит
    Тип развёртки : Прогрессивная
    Метод сжатия : С потерями
    Бит/(Пиксели*Кадры) : 0.274
    Размер потока : 1,55 Гбайт (71%)
    Библиотека кодирования : XviD 73
    Аудио #1
    Идентификатор : 1
    Формат : AC-3
    Формат/Информация : Audio Coding 3
    Расширение режима : CM (complete main)
    Параметр Endianness формата : Big
    Идентификатор кодека : 2000
    Продолжительность : 1 ч. 52 м.
    Вид битрейта : Постоянный
    Битрейт : 384 Кбит/сек
    Каналы : 6 каналов
    Расположение каналов : Front: L C R, Side: L R, LFE
    Частота : 48,0 КГц
    Битовая глубина : 16 бит
    Метод сжатия : С потерями
    Размер потока : 310 Мбайт (14%)
    Выравнивание : Разделение по промежуткам
    Продолжительность промежутка : 40 мс. (1,00 видеокадр)
    Время предзагрузки промежутка : 500 мс.
    Аудио #2
    Идентификатор : 2
    Формат : AC-3
    Формат/Информация : Audio Coding 3
    Расширение режима : CM (complete main)
    Параметр Endianness формата : Big
    Идентификатор кодека : 2000
    Продолжительность : 1 ч. 52 м.
    Вид битрейта : Постоянный
    Битрейт : 384 Кбит/сек
    Каналы : 6 каналов
    Расположение каналов : Front: L C R, Side: L R, LFE
    Частота : 48,0 КГц
    Битовая глубина : 16 бит
    Метод сжатия : С потерями
    Размер потока : 310 Мбайт (14%)
    Выравнивание : Разделение по промежуткам
    Продолжительность промежутка : 40 мс. (1,00 видеокадр)
    Время предзагрузки промежутка : 500 мс.

    Скриншоты

    Сравнение с DVDRiphttp://screenshotcomparison.com/comparison/107781
    Залил: DJ_V.K_TV
    Размер скачиваемого торрента: 2.17 GB (2332041271 Bytes)

    Пришельцы 2: Коридоры времени/Les visiteurs 2: Les couloirs du temps (1998) HDTVRip от Deadmauvlad | P | Open Matte скачать через торрент бесплатно
    загрузка...
    Рейтинг →
     (голосов: 1, оценка 4/5, голосовать можно 1 раз )

    Другие торренты по теме:

  • Ковбои против пришельцев / Cowboys Aliens (2011) BDRip-AVC | Театральная версия торрент скачать бесплатно
  • Пришельцы на чердаке / Aliens in the Attic (2009) HDRip-AVC торрент скачать бесплатно
  • Секретные территории. Наследие звездных пришельцев (2013) SATRip торрент скачать бесплатно
  • Монстры против Пришельцев / Monsters vs Aliens (2009) BDRip 720p от DHT-Movies торрент скачать бесплатно
  • Тайные знаки. Странные явления. Пришельцы. Необъявленный визит (2011) SATRip от Generalfilm торрент скачать бесплатно
  • Таинственная Россия: Ставропольский край. Куда ведут знаки пришельцев (2013) SATRip торрент скачать бесплатно
  • Монстры против Пришельцев: Ночь Живых Морковок / Monsters vs. Aliens: Night of Living Carrots (2011) BDRip 720p | L торрент скачать бесплатно
  • Пришельцы в Америке / Just Visiting (2001) DVDRip от Youtracker | D торрент скачать бесплатно


    • Комментарии (0):

      Информация

      Информация

        Посетители, находящиеся в группе Гости, не могут оставлять комментарии в данной новости.

        ↓ Меню



        ↓ Опрос

        А Вы добавили сайт в закладки?
        Да
        Не


        Top 10 за неделю (Фильмы)