.
Авторизация | Регистрация
» » Матадор / Matador (1986) DVD9 скачать через торрент бесплатно




    Матадор / Matador (1986) DVD9 скачать через торрент бесплатно

    Опубликовал: Админ | Дата: 27-02-2015, 11:10 | Просмотров: 201


    Детально о кино
    Русское название:Матадор
    Русское название в мировом прокате:Matador
    Создали в:1986
    Категория жанра:Триллер, драма, детектив
    Главный режиссер:Педро Альмодовар

    Актеры
    Ассумпта Серна, Антонио Бандерас, Начо Мартинес, Ева Кобо, Хульета Серрано, Чус Лампреаве, Кармен Маура, Эусебио Понсела, Бибиана Фернандес, Луис Сихес

    Сюжет фильма
    Матадор Диего жестоко ранен быком и более не имеет возможности убивать на арене…

    Снималось в:Испания
    Киностудия:Iberoamericana de Televisi?n S.A., Televisi?n Espa?ola (TVE)
    Время просмотра:01:46:33
    Перевод текста:Авторский (Алексеев)
    Файл
    Кодек для видео:MPEG-2
    Качество фильма:DVD-9
    Информация о видео:MPEG2, PAL 16:9 (720x576) VBR, 24,000 кадр/с
    Информация о звуке:Русский 2.0(192Kbps), Испанский DD 2.0(448Kbps)
    Меню
    DVDInfo
    Title:
    Size: 6.22 Gb ( 6 519 152 KBytes ) - DVD-9
    Enabled regions: 1, 2, 3, 4, 5, 6, 7, 8
    VTS_01 :
    Play Length: 01:46:33
    Video: PAL 16:9 (720x576) VBR, Auto PanScan
    Audio:
    Russian (Dolby AC3, 2 ch)
    Espanol (Dolby AC3, 2 ch)
    Menu Video:
    PAL 4:3 (704x576) VBR
    Menu English Language Unit :
    Root Menu
    MediaInfo
    Общее
    Полное имя : D:ААА2МАТАДОРVIDEO_TSVTS_01_1.VOB
    Формат : MPEG-PS
    Размер файла : 1000 Мбайт
    Продолжительность : 16 м.
    Режим общего битрейта : Переменный
    Общий поток : 8283 Кбит/сек
    Видео
    Идентификатор : 224 (0xE0)
    Формат : MPEG Video
    Версия формата : Version 2
    Профиль формата : Main@Main
    Параметр BVOP формата : Да
    Параметр матрицы формата : По умолчанию
    Параметр GOP формата : M=3, N=12
    Продолжительность : 16 м.
    Вид битрейта : Переменный
    Битрейт : 7479 Кбит/сек
    Максимальный битрейт : 8832 Кбит/сек
    Ширина : 720 пикселей
    Высота : 576 пикселей
    Соотношение сторон : 16:9
    Частота кадров : 24,000 кадра/сек
    Стандарт вещания : PAL
    Цветовое пространство : YUV
    Субдискретизация насыщенности : 4:2:0
    Битовая глубина : 8 бит
    Тип развёртки : Прогрессивная
    Порядок развёртки : 2:2:2:2:2:2:2:2:2:2:2:3 Pulldown
    Метод сжатия : С потерями
    Бит/(Пиксели*Кадры) : 0.751
    TimeCode_FirstFrame : 00:00:00:00
    TimeCode_Source : Group of pictures t_head
    Размер потока : 903 Мбайт (90%)
    Аудио #1
    Идентификатор : 189 (0xBD)-128 (0x80)
    Формат : AC-3
    Формат/Информация : Audio Coding 3
    Расширение режима : CM (complete main)
    Параметр Endianness формата : Big
    Режим смешивания : DVD-Video
    Продолжительность : 16 м.
    Вид битрейта : Постоянный
    Битрейт : 192 Кбит/сек
    Каналы : 2 канала
    Расположение каналов : Front: L R
    Частота : 48,0 КГц
    Битовая глубина : 16 бит
    Метод сжатия : С потерями
    Размер потока : 23,2 Мбайт (2%)
    Аудио #2
    Идентификатор : 189 (0xBD)-129 (0x81)
    Формат : AC-3
    Формат/Информация : Audio Coding 3
    Расширение режима : CM (complete main)
    Параметр Endianness формата : Big
    Режим смешивания : DVD-Video
    Продолжительность : 16 м.
    Вид битрейта : Постоянный
    Битрейт : 448 Кбит/сек
    Каналы : 2 канала
    Расположение каналов : Front: L R
    Частота : 48,0 КГц
    Битовая глубина : 16 бит
    Метод сжатия : С потерями
    Размер потока : 54,1 Мбайт (5%)
    Меню



    Скриншоты
    /URL
    Релиз:
    Залил: YArl
    Размер скачиваемого торрента: 6.22 GB (6675611648 Bytes)

    Матадор/Matador (1986) DVD9 скачать через торрент бесплатно
    загрузка...
    Рейтинг →
     (голосов: 1, оценка 4/5, голосовать можно 1 раз )

    Другие торренты по теме:

  • Матадор / The Matador (2005) HDRip от Scarabey | D торрент скачать бесплатно
  • Матадор / The Matador (2005) HDRip от Scarabey | D торрент скачать бесплатно
  • Матадор / Matador (2014) WEB-DL 1080p | Sub скачать через торрент бесплатно
  • Матадор / The Matador (2005) BDRip 720p | D скачать через торрент бесплатно
  • Матадор / Matador торрент скачать бесплатно
  • Матадор / Matador (1986) DVDRip от Scarabey | А скачать через торрент бесплатно
  • Матадор / The Matador (2005) BDRip-AVC | D скачать торрент бесплатно


    • Комментарии (0):

      Информация

      Информация

        Посетители, находящиеся в группе Гости, не могут оставлять комментарии в данной новости.

        ↓ Меню



        ↓ Опрос

        А Вы добавили сайт в закладки?
        Да
        Не


        Top 10 за неделю (Фильмы)