.
Авторизация | Регистрация
Хочешь лучшие торренты? Добавь свой email!
Добавить
» » Судья / The Judge (2014) BDRip 720p | KinoGadget | iPad скачать через торрент бесплатно




    Судья / The Judge (2014) BDRip 720p | KinoGadget | iPad скачать через торрент бесплатно

    Опубликовал: Админ | Дата: 27-02-2015, 11:10 | Просмотров: 253


    Создали в: 2014
    Снималось в: США
    Категория жанра: драма
    Время просмотра: 02:21:30
    Перевод текста: Дублированный
    Главный режиссер: Дэвид Добкин

    Актеры
    Роберт Дауни мл., Роберт Дювалл, Вера Фармига, Билли Боб Торнтон, Винсент Д`Онофрио, Джереми Стронг, Дэкс Шепард, Лейтон Мистер, Кен Ховард, Эмма Трамбле, Бальтазар Гетти, Дэвид Крамхолц, Грэйс Забриски, Дэнис О’Хэйр, Сара Ланкастер, Лонни Фармер, Мэтт Риди, Марк Кили, Джереми С. Холм, Катрин Каммингс
    Описание: В центре истории — успешный адвокат, который приезжает в родной город на похороны матери и узнаёт, что его отца, городского судью, подозревают в убийстве. Герой решает задержаться, чтобы выяснить правду, и постепенно лучше узнаёт родственников, с которыми давно вообще никак не общался.

    Информация о видео кодек:MPEG-4 AVC
    Качество фильма:BDRip 720p
    Параметры Видео:1280x528, 23.976 fps; ~1 804 kbps avg
    Параметры Звука:48.0 KHz, AAC, ~165.00 kbps avg, 2ch
    Тип видео:mp4
    Релиз:
    Meta Tags


    MI
    General
    Complete name : D:VideoripSudya.2014.D.BDRip.720p_KinoGadget.mp4
    Format : MPEG-4
    Format profile : Base Media
    Codec ID : isom
    File size : 1.95 GiB
    Duration : 2h 21mn
    Overall bit rate mode : Variable
    Overall bit rate : 1 977 Kbps
    Movie name : Судья
    Performer : Дэвид Добкин
    Genre : Drama
    ContentType : Short Film
    Recorded date : 2014
    Encoded date : UTC 2015-01-17 18:33:51
    Tagged date : UTC 2015-01-17 18:41:02
    Cover : Yes
    ContentRating : mpaa|R|400|
    LongDeion : В центре истории — успешный адвокат, который приезжает в родной город на похороны матери и узнаёт, что его отца, городского судью, подозревают в убийстве. Герой решает задержаться, чтобы выяснить правду, и постепенно лучше узнаёт родственников, с которыми давно вообще никак не общался.
    HDVideo : Yes
    Video
    ID : 1
    Format : AVC
    Format/Info : Advanced Video Codec
    Format profile : High@L4.1
    Format settings, CABAC : Yes
    Format settings, ReFrames : 11 frames
    Codec ID : avc1
    Codec ID/Info : Advanced Video Coding
    Duration : 2h 21mn
    Bit rate : 1 804 Kbps
    Maximum bit rate : 12.2 Mbps
    Width : 1 280 pixels
    Height : 528 pixels
    Display aspect ratio : 2.40:1
    Frame rate mode : Constant
    Frame rate : 23.976 fps
    Color space : YUV
    Chroma subsampling : 4:2:0
    Bit depth : 8 bits
    Scan type : Progressive
    Bits/(Pixel*Frame) : 0.111
    Stream size : 1.78 GiB (91%)
    Writing library : x264 core 144 r2525 40bb568
    Encoding settings : cabac=1/ref=11/deblock=1:-1:-1/analyse=0x3:0x133/me=umh/subme=10/psy=1/psy_rd=1.00:0.20/mixed_ref=1/me_range=24/chroma_me=1/trellis=2/8x8dct=1/cqm=0/deadzone=21,11/fast_pskip=1/chroma_qp_offset=-3/threads=3/lookahead_threads=1/sliced_threads=0/nr=0/decimate=1/interlaced=0/bluray_compat=0/constrained_intra=0/bframes=6/b_pyramid=2/b_adapt=2/b_bias=0/direct=3/weightb=1/open_gop=0/weightp=2/keyint=240/keyint_min=23/scenecut=40/intra_refresh=0/rc_lookahead=60/rc=crf/mbtree=1/crf=21.0/qcomp=0.60/qpmin=0/qpmax=69/qpstep=4/ip_ratio=1.40/aq=1:1.00
    Encoded date : UTC 2015-01-17 17:18:10
    Tagged date : UTC 2015-01-17 18:35:20
    Audio
    ID : 2
    Format : AAC
    Format/Info : Advanced Audio Codec
    Format profile : LC
    Codec ID : 40
    Duration : 2h 21mn
    Duration_FirstFrame : 64ms
    Bit rate mode : Variable
    Bit rate : 165 Kbps
    Maximum bit rate : 235 Kbps
    Channel count : 2 channels
    Channel positions : Front: L R
    Sampling rate : 48.0 KHz
    Compression mode : Lossy
    Stream size : 167 MiB (8%)
    Language : Russian
    Tagged date : UTC 2015-01-17 18:35:20

    Скриншоты


    Залил: KinoGadget
    Размер скачиваемого торрента: 1.95 GB (2097989581 Bytes)

    Судья/The Judge (2014) BDRip 720p | KinoGadget | iPad скачать через торрент бесплатно
    загрузка...
    Рейтинг →
     (голосов: 1, оценка 5/5, голосовать можно 1 раз )

    Другие торренты по теме:

  • Судья Дредд / Dredd (2012) HDRip от Scarabey | L1
  • Судья Дредд 3D / Dredd 3D (2012) BDRemux | L1
  • Судья Дредд / Dredd (2012) HDRip | Лицензия
  • Судья Дредд 3D / Dredd 3D (2012) BDRip 720p от DHT-Movies
  • OST - Судья Дредд 3D / Dredd 3D (2012) MP3
  • Судья Дредд / Judge Dredd (1995) BDRip-AVC | P
  • Судья Дредд / Judge Dredd (1995) BDRip-AVC | P, P2, A скачать через торрент бесплатно
  • Судья / La pretora (1976) DVDRip скачать через торрент бесплатно


    • Комментарии (0):

      Информация

      Информация

        Посетители, находящиеся в группе Гости, не могут оставлять комментарии в данной новости.

        ↓ Меню



        ↓ Опрос

        А Вы добавили сайт в закладки?
        Да
        Не


        Top 10 за месяц (Фильмы)