.
Авторизация | Регистрация
Хочешь лучшие торренты? Добавь свой email!
Добавить
» » Разгром Юденича (1940) DVDRip от New-Team скачать через торрент бесплатно




    Разгром Юденича (1940) DVDRip от New-Team скачать через торрент бесплатно

    Опубликовал: Админ | Дата: 27-02-2015, 11:10 | Просмотров: 245


    Снималось в: СССР
    Создали в: Ленфильм
    Категория жанра: военный
    Создали в: 1940
    Время просмотра: 1:09:04
    Перевод текста:Не требуется
    Субтитры подготовлены: нет
    Оригинальная аудиодорожка: русский
    Главный режиссер: Павел Петров-Бытов

    Актеры

    Константин Скоробогатов, А. Чекаевский, Владимир Честноков, Владимир Гардин, А. Виолинов, Евгений Григорьев, Геннадий Мичурин, Александр Мельников, Василий Сафронов, Павел Кадочников...
    Описание:
    О борьбе Красной Армии и рабочих революционного Петрограда против белогвардейцев в 1919 году...



    Источник:DVD9 R5
    Качество фильма видео:DVDRip
    Тип видео видео: AVI
    Виде: 688x512 (4:3), 25 fps, XviD ~ 2042 kbps avg, 0.232 bit/pixel
    Информация о звуке: 48 kHz, Dolby Digital AC3 2.0, 192 kbps
    Раздача от:
    MediaInfo

    Общее
    Полное имя : Razgrom.Judenicha.1940.DVDRip_New-team_by_AVP_Studio.avi
    Формат : AVI
    Формат/Информация : Audio Video Interleave
    Размер файла : 1,09 Гбайт
    Продолжительность : 1 ч. 9 м.
    Общий поток : 2243 Кбит/сек
    Программа кодирования : VirtualDubModRus 1.5.10.2 (build 2542/release)
    Библиотека кодирования : VirtualDubMod build 2542/release
    Видео
    Идентификатор : 0
    Формат : MPEG-4 Visual
    Профиль формата : Advanced Simple@L5
    Параметр BVOP формата : 1
    Параметр QPel формата : Нет
    Параметр GMC формата : Без точки перехода
    Параметр матрицы формата : Выборочная
    Идентификатор кодека : XVID
    Идентификатор кодека/Подсказка : XviD
    Продолжительность : 1 ч. 9 м.
    Битрейт : 2042 Кбит/сек
    Ширина : 688 пикселей
    Высота : 512 пикселей
    Соотношение сторон : 4:3
    Частота кадров : 25,000 кадров/сек
    Цветовое пространство : YUV
    Субдискретизация насыщенности : 4:2:0
    Битовая глубина : 8 бит
    Тип развёртки : Прогрессивная
    Метод сжатия : С потерями
    Бит/(Пиксели*Кадры) : 0.232
    Размер потока : 1019 Мбайт (91%)
    Библиотека кодирования : XviD 73
    Аудио
    Идентификатор : 1
    Формат : AC-3
    Формат/Информация : Audio Coding 3
    Расширение режима : CM (complete main)
    Параметр Endianness формата : Big
    Идентификатор кодека : 2000
    Продолжительность : 1 ч. 9 м.
    Вид битрейта : Постоянный
    Битрейт : 192 Кбит/сек
    Каналы : 2 канала
    Расположение каналов : Front: L R
    Частота : 48,0 КГц
    Битовая глубина : 16 бит
    Метод сжатия : С потерями
    Размер потока : 95,8 Мбайт (9%)
    Выравнивание : Разделение по промежуткам
    Продолжительность промежутка : 40 мс. (1,00 видеокадр)
    Время предзагрузки промежутка : 500 мс

    Скриншоты



    Залил: AVPStudio
    Размер скачиваемого торрента: 1.09 GB (1174263808 Bytes)

    Разгром Юденича (1940) DVDRip от New-Team скачать через торрент бесплатно
    загрузка...
    Рейтинг →
     (голосов: 1, оценка 3/5, голосовать можно 1 раз )

    Другие торренты по теме:

  • Свадебный разгром / A Few Best Men (2011) BDRip-AVC скачать через торрент бесплатно
  • Свадебный разгром / A Few Best Men (2011) BDRip 720p от Leonardo and Scarabey скачать через торрент бесплатно
  • Восход победы. Разгром германских союзников [Эфир от 07.11.2014]
  • Послесвадебный разгром / A Few Less Men (2016) WEB-DLRip-AVC от OlLanDGroup | iTunes
  • Послесвадебный разгром / A Few Less Men (2017) WEB-DLRip от MegaPeer | iTunes


    • Комментарии (0):

      Информация

      Информация

        Посетители, находящиеся в группе Гости, не могут оставлять комментарии в данной новости.

        ↓ Меню



        ↓ Опрос

        А Вы добавили сайт в закладки?
        Да
        Не


        Top 10 за месяц (Фильмы)