.
Авторизация | Регистрация
Хочешь лучшие торренты? Добавь свой email!
Добавить
» » Шаг вперёд: Всё или ничего / Step Up All In (2014) DVD5 скачать через торрент бесплатно




    Шаг вперёд: Всё или ничего / Step Up All In (2014) DVD5 скачать через торрент бесплатно

    Опубликовал: Админ | Дата: 27-02-2015, 11:10 | Просмотров: 245

    Every step has led to this

    Создали в:2014
    Создали в:США/Summit Entertainment, Offspring Entertainment
    Категория жанра:Драма, мелодрама, музыкальный
    Главный режиссер:Триш Си
    Продюсеры:Дженнифер Джибгот, Адам Шенкман, Джефф Диаз
    Актеры:Райан Гузман, Бриана Эвиган, Стивен Босс, Миша Гэбриел Хэмилтон, Изабелла Мико, Элисон Стоунер, Адам Дж. Севани, Стивен Стево Джонс, Дэвид Шрейбман, Мари Кода
    Описание фильма:
    В переливающемся огнями Лас-Вегасе лучшие танцоры планеты сойдутся в батле, который решит все. Талантливый самоучка Шон и красотка Энди, мечтающие о славе и богатстве, примут участие в популярном реалити-шоу и бросят вызов непобедимым командам противников, а главное — самим себе. Смогут ли они преодолеть страх, пережить предательство и обуздать страсть, чтобы стать первыми и осуществить свои мечты?
    Перевод текста:Дублированный (iTunes)
    Субтитры:Вшитые отключаемые
    Язык субтитров:Французский, голландский
    Дата мировой премьеры:9 июля 2014
    Дата российской премьеры:17 июля 2014, Централ Партнершип
    Дата выхода DVD релиза:16 декабря 2014, CD Land
    Время просмотра:01:47:17
    Качество фильма видео:DVD5
    Информация о видео:MPEG-2, 720x576@1024x576 (PAL 16:9), ~4771 Кбит/сек
    Информация о звуке 1:AC3 5.1, 384 Кбит/сек Русский - дублированный
    Информация о звуке 2:AC3 5.1, 448 Кбит/сек Английский - оригинал
    DVDInfo:
    Title: Step Up All In (2014) DVD5
    Size: 4.37 Gb ( 4 582 046,00 KBytes ) - DVD-5
    Enabled regions: 1, 2, 3, 4, 5, 6, 7, 8
    VTS_01 :
    Play Length: 01:47:17+00:00:00+00:02:33+00:03:56+00:00:44+00:01:54+00:02:42+00:01:43+00:02:11+00:01:26+00:04:35+00:03:50+00:06:56
    Video: PAL 16:9 (720x576) VBR, Auto Letterboxed
    Audio:
    Russian (Dolby AC3, 6 ch)
    English (Dolby AC3, 6 ch)
    Subtitles:
    Francais
    Nederlands
    Francais
    VTS_02 :
    Play Length: 00:00:00
    Video: PAL 16:9 (720x576) VBR, Auto Letterboxed
    Audio:
    English (Dolby AC3, 2 ch)
    Subtitles:
    Francais
    Nederlands
    VTS_03 :
    Play Length: 00:00:03+00:00:00+00:00:00+00:00:00+00:00:00
    Video: PAL 16:9 (720x576) VBR, Auto Letterboxed
    Audio:
    English (Dolby AC3, 2 ch)
    Subtitles:
    Francais
    Nederlands
    VTS_04 :
    Play Length: 00:00:00
    Video: PAL 16:9 (720x576) VBR, Auto Letterboxed
    Audio:
    English (Dolby AC3, 2 ch)
    English (Dolby AC3, 2 ch)
    Subtitles:
    Francais
    Nederlands
    VTS_05 :
    Play Length: 00:00:00
    Video: PAL 16:9 (720x576) VBR, Auto Letterboxed
    Audio:
    Francais (Dolby AC3, 6 ch)
    VTS_06 :
    Play Length: 00:00:00
    Video: PAL 16:9 (720x576) VBR, Auto Letterboxed
    Audio:
    English (Dolby AC3, 2 ch)
    Subtitles:
    Nederlands
    * Menus Information *
    VIDEO_TS Menu
    Video:
    PAL 16:9 (720x576) VBR
    Auto Letterboxed
    Audio:
    Not specified (Dolby AC3, 6 ch)
    English Language Unit :
    Title Menu
    VTS_01 Menu
    Video:
    PAL 16:9 (720x576) VBR
    Auto Letterboxed
    Audio:
    Not specified (Dolby AC3, 2 ch)
    English Language Unit :
    Root Menu
    Subpicture Menu
    Audio Menu
    Chapter (PTT) Menu
    VTS_02 Menu
    Video:
    PAL 16:9 (720x576) VBR
    Auto Letterboxed
    English Language Unit :
    Root Menu
    Angle menu
    VTS_03 Menu
    Video:
    PAL 16:9 (720x576) VBR
    Auto Letterboxed
    English Language Unit :
    Root Menu
    Angle menu
    VTS_04 Menu
    Video:
    PAL 16:9 (720x576) VBR
    Auto Letterboxed
    English Language Unit :
    Root Menu
    Angle menu
    VTS_05 Menu
    Video:
    PAL 16:9 (720x576) VBR
    Auto Letterboxed
    English Language Unit :
    Root Menu
    Angle menu
    VTS_06 Menu
    Video:
    PAL 16:9 (720x576) VBR
    Auto Letterboxed
    English Language Unit :
    Root Menu
    Angle menu
    MediaInfo:
    Общее
    Полное имя : G:ВидеоStep Up All In (2014) DVD5VIDEO_TSVTS_01_1.VOB
    Формат : MPEG-PS
    Размер файла : 1024 Мбайт
    Продолжительность : 25 м.
    Режим общего битрейта : Переменный
    Общий поток : 5717 Кбит/сек
    Видео
    Идентификатор : 224 (0xE0)
    Формат : MPEG Video
    Версия формата : Version 2
    Профиль формата : Main@Main
    Параметр BVOP формата : Да
    Параметр матрицы формата : Выборочная
    Параметр GOP формата : Variable
    Format_Settings_PictureStructure : Frame
    Продолжительность : 25 м.
    Вид битрейта : Переменный
    Битрейт : 4771 Кбит/сек
    Максимальный битрейт : 8496 Кбит/сек
    Ширина : 720 пикселей
    Высота : 576 пикселей
    Соотношение сторон : 16:9
    Частота кадров : 25,000 кадров/сек
    Стандарт вещания : PAL
    Цветовое пространство : YUV
    Субдискретизация насыщенности : 4:2:0
    Битовая глубина : 8 бит
    Тип развёртки : Чересстрочная
    Порядок развёртки : Верхнее поле первое
    Метод сжатия : С потерями
    Бит/(Пиксели*Кадры) : 0.460
    Временной код первого кадра : 00:00:00:00
    Оригинал временного кода : Group of pictures t_head
    Размер потока : 855 Мбайт (83%)
    Gop_OpenClosed_FirstFrame : Closed
    Аудио #1
    Идентификатор : 189 (0xBD)-128 (0x80)
    Формат : AC-3
    Формат/Информация : Audio Coding 3
    Расширение режима : CM (complete main)
    Параметр Endianness формата : Big
    Режим смешивания : DVD-Video
    Продолжительность : 25 м.
    Вид битрейта : Постоянный
    Битрейт : 384 Кбит/сек
    Каналы : 6 каналов
    Расположение каналов : Front: L C R, Side: L R, LFE
    Частота : 48,0 КГц
    Битовая глубина : 16 бит
    Метод сжатия : С потерями
    Размер потока : 68,8 Мбайт (7%)
    Аудио #2
    Идентификатор : 189 (0xBD)-129 (0x81)
    Формат : AC-3
    Формат/Информация : Audio Coding 3
    Расширение режима : CM (complete main)
    Параметр Endianness формата : Big
    Режим смешивания : DVD-Video
    Продолжительность : 25 м.
    Вид битрейта : Постоянный
    Битрейт : 448 Кбит/сек
    Каналы : 6 каналов
    Расположение каналов : Front: L C R, Side: L R, LFE
    Частота : 48,0 КГц
    Битовая глубина : 16 бит
    Метод сжатия : С потерями
    Размер потока : 80,2 Мбайт (8%)
    Текст #1
    Идентификатор : 189 (0xBD)-32 (0x20)
    Формат : RLE
    Формат/Информация : Run-length encoding
    Режим смешивания : DVD-Video
    Текст #2
    Идентификатор : 189 (0xBD)-33 (0x21)
    Формат : RLE
    Формат/Информация : Run-length encoding
    Режим смешивания : DVD-Video
    Текст #3
    Идентификатор : 189 (0xBD)-34 (0x22)
    Формат : RLE
    Формат/Информация : Run-length encoding
    Режим смешивания : DVD-Video
    Текст #4
    Идентификатор : 189 (0xBD)-35 (0x23)
    Формат : RLE
    Формат/Информация : Run-length encoding
    Режим смешивания : DVD-Video
    Меню
    Доп. информация:
    Исходник:Шаг вперёд: Всё или ничего/Step Up All In (2014) DVD9 | Custom
    Удалены: предупреждающие надписи, доп. материалы, английская (комментарий) звуковая дорожка (в меню кнопки затёрты)
    Видео сжато на 17%
    Меню: статичное, недействующие кнопки затерты и закрыты.
    Обработка и сжатие: DVD ReMake Pro + DVD Rebuilder + CCE SP2 7 проходов + Работа с меню (Adobe PhotoShop и MuxMan).
    Скриншоты меню:

    Скриншоты:

    Залил: Саша 1992
    Размер скачиваемого торрента: 4.37 GB (4692015104 Bytes)

    Шаг вперёд: Всё или ничего/Step Up All In (2014) DVD5 скачать через торрент бесплатно
    загрузка...
    Рейтинг →
     (голосов: 1, оценка 4/5, голосовать можно 1 раз )

    Другие торренты по теме:

  • OST - Шаг вперёд: Всё или ничего / Step Up: All In (2014) MP3 от AGR - Generalfilm скачать через торрент бесплатно
  • OST - Шаг вперёд: Всё или ничего / Step Up: All In (Original Motion Picture Soundtrack) (2014) MP3 от AGR - Generalfilm
  • Шаг вперёд: Всё или ничего / Step Up All In (2014) WEB-DL 720p | iTunes скачать через торрент бесплатно
  • Шаг вперёд: Всё или ничего / Step Up All In (2014) BDRip 1080p от Ash61 | 3D-Video | halfOU | iTunes скачать через торрент бесплатно
  • Шаг вперёд: Всё или ничего / Step Up All In (2014) BDRip 720p от Leonardo and Scarabey | iTunes скачать через торрент бесплатно


    • Комментарии (0):

      Информация

      Информация

        Посетители, находящиеся в группе Гости, не могут оставлять комментарии в данной новости.

        ↓ Меню



        ↓ Опрос

        А Вы добавили сайт в закладки?
        Да
        Не


        Top 10 за месяц (Фильмы)