.
Авторизация | Регистрация
Хочешь лучшие торренты? Добавь свой email!
Добавить
» » Спасение / The Salvation (2014) BDRip 1080p от HDClub скачать через торрент бесплатно




    Спасение / The Salvation (2014) BDRip 1080p от HDClub скачать через торрент бесплатно

    Опубликовал: Админ | Дата: 27-02-2015, 11:10 | Просмотров: 218


    Русское название: Спасение
    Русское название в мировом прокате: The Salvation
    Создали в: 2014
    Категория жанра: драма, вестерн
    Главный режиссер: Кристиан Левринг

    Актеры
    Мадс Миккельсен, Ева Грин, Джеффри Дин Морган, Эрик Кантона, Микаэл Персбрандт, Дуглас Хеншэлл, Майкл Рэймонд-Джеймс, Джонатан Прайс, Александр Арнольд, Нанна Оланд Фабрициус

    Сюжет фильма
    Джон, фермер, чья семья убита, дает клятву отомстить, выслеживает и наказывает убийцу. Его действия запускают цепочку насилия: лидер местной банды со своими напарниками решает расправиться с Джоном и его деревней.

    Снималось в: Дания, Великобритания, ЮАР
    Киностудия: Danmarks Radio (DR), Det Danske Filminstitut, Film i V?st, Forward Films
    Время просмотра: 01:27:56
    Перевод текста: Авторский (Юрий Сербин) + Авторский (Алексей Матвеев)
    Субтитры: English (Full), English (Forced), Russian (Matveev), Russian (Notabenoid)
    Релиз:
    Тип видео: Matroska
    Источник: The.Salvation.2014.1080p.COMPLETE.BLURAY
    Информация о видео: 1920x800 at 23.976 fps, x264, CRF 16, High@L4.1 ~19300 kbps avg
    Информация о звуке#1: Russian: 48 kHz/24-bit, DTS, 3/2 (L,C,R,l,r) + LFE ch, ~1509.00 kbps avg |Авторский, Ю.Сербин|
    Информация о звуке#2: Russian: 48 kHz/24-bit, DTS, 3/2 (L,C,R,l,r) + LFE ch, ~1509.00 kbps avg |Авторский, А.Матвеев|
    Информация о звуке#3: English: 48 kHz/24-bit, DTS, 3/2 (L,C,R,l,r) + LFE ch, ~1509.00 kbps avg
    MI
    General
    Unique ID : 229810104225712104005917136372419837952 (0xACE3D0ED932BAC038F67251E4EA0C000)
    Complete name : Spasenie.2014.BDRip.1080p.mkv
    Format : Matroska
    Format version : Version 4/Version 2
    File size : 14.9 GiB
    Duration : 1h 31mn
    Overall bit rate : 23.3 Mbps
    Movie name : The.Salvation.2014.1080p.BluRay.2xRus.Eng.HDCLUB
    Encoded date : UTC 2015-01-14 14:02:19
    Writing application : mkvmerge v7.4.0 (;Circles;) 64bit built on Dec 12 2014 12:19:56
    Writing library : libebml v1.3.0 + libmatroska v1.4.1
    Video
    ID : 1
    Format : AVC
    Format/Info : Advanced Video Codec
    Format profile : High@L4.1
    Format settings, CABAC : Yes
    Format settings, ReFrames : 5 frames
    Codec ID : V_MPEG4/ISO/AVC
    Bit rate : 18.3 Mbps
    Width : 1 920 pixels
    Height : 800 pixels
    Display aspect ratio : 2.40:1
    Frame rate mode : Variable
    Original frame rate : 25.000 fps
    Color space : YUV
    Chroma subsampling : 4:2:0
    Bit depth : 8 bits
    Scan type : Progressive
    Title : The Salvation (2014)
    Writing library : x264 core 144 r2525kMod 40bb568
    Encoding settings : cabac=1/ref=5/deblock=1:-3:-3/analyse=0x3:0x133/me=umh/subme=10/psy=1/fade_compensate=0.00/psy_rd=1.05:0.00/mixed_ref=1/me_range=16/chroma_me=1/trellis=2/8x8dct=1/cqm=0/deadzone=21,11/fast_pskip=0/chroma_qp_offset=-2/threads=12/lookahead_threads=2/sliced_threads=0/nr=0/decimate=0/interlaced=0/bluray_compat=0/constrained_intra=0/fgo=0/bframes=7/b_pyramid=2/b_adapt=2/b_bias=0/direct=3/weightb=1/open_gop=0/weightp=2/keyint=250/keyint_min=25/scenecut=40/intra_refresh=0/rc=crf/mbtree=0/crf=17.8000/qcomp=0.60/qpmin=0/qpmax=69/qpstep=4/ip_ratio=1.30/pb_ratio=1.10/aq=3:0.60
    Language : English
    Default : Yes
    Forced : No
    Audio #1
    ID : 2
    Format : DTS
    Format/Info : Digital Theater Systems
    Mode : 16
    Format settings, Endianness : Big
    Codec ID : A_DTS
    Duration : 1h 31mn
    Bit rate mode : Constant
    Bit rate : 1 509 Kbps
    Channel(s) : 6 channels
    Channel positions : Front: L C R, Side: L R, LFE
    Sampling rate : 48.0 KHz
    Bit depth : 24 bits
    Compression mode : Lossy
    Stream size : 991 MiB (6%)
    Title : DTS 5.1 @ 1509 Kbps -Serbin
    Language : Russian
    Default : Yes
    Forced : No
    Audio #2
    ID : 3
    Format : DTS
    Format/Info : Digital Theater Systems
    Mode : 16
    Format settings, Endianness : Big
    Codec ID : A_DTS
    Duration : 1h 31mn
    Bit rate mode : Constant
    Bit rate : 1 509 Kbps
    Channel(s) : 6 channels
    Channel positions : Front: L C R, Side: L R, LFE
    Sampling rate : 48.0 KHz
    Bit depth : 24 bits
    Compression mode : Lossy
    Stream size : 991 MiB (6%)
    Title : DTS 5.1 @ 1509 Kbps - Matveev
    Language : Russian
    Default : No
    Forced : No
    Audio #3
    ID : 4
    Format : DTS
    Format/Info : Digital Theater Systems
    Mode : 16
    Format settings, Endianness : Big
    Codec ID : A_DTS
    Duration : 1h 31mn
    Bit rate mode : Constant
    Bit rate : 1 509 Kbps
    Channel(s) : 6 channels
    Channel positions : Front: L C R, Side: L R, LFE
    Sampling rate : 48.0 KHz
    Bit depth : 24 bits
    Compression mode : Lossy
    Stream size : 991 MiB (6%)
    Title : DTS 5.1 @ 1509 Kbps
    Language : English
    Default : No
    Forced : No
    Text #1
    ID : 5
    Format : UTF-8
    Codec ID : S_TEXT/UTF8
    Codec ID/Info : UTF-8 Plain Text
    Language : Russian
    Default : No
    Forced : No
    Text #2
    ID : 6
    Format : UTF-8
    Codec ID : S_TEXT/UTF8
    Codec ID/Info : UTF-8 Plain Text
    Language : Russian
    Default : No
    Forced : No
    Text #3
    ID : 7
    Format : UTF-8
    Codec ID : S_TEXT/UTF8
    Codec ID/Info : UTF-8 Plain Text
    Title : Full
    Language : English
    Default : No
    Forced : No
    Text #4
    ID : 8
    Format : UTF-8
    Codec ID : S_TEXT/UTF8
    Codec ID/Info : UTF-8 Plain Text
    Title : force
    Language : English
    Default : Yes
    Forced : Yes
    Menu
    00:00:00.000 : en:00:00:00.000
    00:06:59.600 : en:00:06:59.600
    00:18:45.000 : en:00:18:45.000
    00:24:32.600 : en:00:24:32.600
    00:30:13.160 : en:00:30:13.160
    00:38:31.040 : en:00:38:31.040
    00:45:58.440 : en:00:45:58.440
    00:54:19.320 : en:00:54:19.320
    01:01:59.080 : en:01:01:59.080
    01:08:49.600 : en:01:08:49.600
    01:19:13.800 : en:01:19:13.800
    01:24:46.400 : en:01:24:46.400
    Скриншоты
    ЦитатаКто-тописал:
    Сохранены оригинальные чаптеры как на Blu-ray.
    Дорожки №1-2 получены наложением чистых голосов на центр декодированного DTS-HD MA.
    Перевод Юрия Сербина выполнен спонсорами ресурса e180: fen, MyxAmoP, Hattori Hanzo, chontvari, luka69, ZeDOK, tide, dsk71, denis_mgn_1987, madoff, Palmer Eldritch, dvd100, Эдуард, dir, kRIPtograf и участниками сервиса Озвучивание: tambov68, Denis1980, gelom, melanin, Dervish, Tagansky, Stepalex. Работа со звуком: rammzez.
    Перевод Алексея Матвеева: будулайроманов. Работа со звуком: Переводман.

    Размер скачиваемого торрента: 14.92 GB (16023537998 Bytes)

    Спасение/The Salvation (2014) BDRip 1080p от HDClub скачать через торрент бесплатно
    загрузка...
    Рейтинг →
     (голосов: 1, оценка 3/5, голосовать можно 1 раз )

    Другие торренты по теме:

  • Феи: Волшебное спасение / Tinker Bell and the Great Fairy Rescue (2010) BDRip 1080p
  • Спасение / Moksha: Salvation (2001) SATRip от Files-x | P
  • В надежде на спасение / Saving Hope (2012) WEB-DLRip | P
  • Кладбище Обреченных: Спасение Неупокоенных Душ / Redemption Cemetery 4: Salvation of the Lost CE (2013) PC
  • История любви. Спасение / Love Chronicles 3: Salvation CE (2013) PC
  • Спасение генерала Яна / Saving General Yang (2013) HDRip-AVC от BTT-TEAM
  • Большое призрачное спасение / The Great Ghost Rescue (2011) HDRip | L1
  • Миссия: Спасение океанов / Mission: Save The Ocean (2013) HDTVRip 1080p от MediaClub | D скачать через торрент бесплатно


    • Комментарии (0):

      Информация

      Информация

        Посетители, находящиеся в группе Гости, не могут оставлять комментарии в данной новости.

        ↓ Меню



        ↓ Опрос

        А Вы добавили сайт в закладки?
        Да
        Не


        Top 10 за месяц (Фильмы)