.
Авторизация | Регистрация
Хочешь лучшие торренты? Добавь свой email!
Добавить
» » Сотня / 100 / The 100 / The Hundred (2014-2015) WEB-DLRip от Generalfilm | КПК | LostFilm торрент скачать бесплатно




    Сотня / 100 / The 100 / The Hundred (2014-2015) WEB-DLRip от Generalfilm | КПК | LostFilm торрент скачать бесплатно

    Опубликовал: Админ | Дата: 27-02-2015, 11:10 | Просмотров: 191


    Детально о кино
    Русское название: Сотня
    Русское название в мировом прокате: The Hundred
    Создали в: 2014
    Категория жанра: Фантастика, экранизация
    Главный режиссер: Дин Уайт, Джон Беринг, Милан Чейлов

    Актеры
    Элиза Тейлор, Мари Авгеропулос, Сачин Сахель, Линдси Морган, Женевьев Бюкнер, Ричард Хэрмон, Джарод Джозеф, Челси Рейст, Крис Браунинг, Джош Ссеттуба

    Сюжет фильма

    Экранизация одноименного романа Касс Морган. После ядерной войны прошло 97 лет. Остатки человечества, укрывшиеся на космической станции Ковчег, страдают от нехватки ресурсов, необходимых для дальнейшего выживания. Правительство исчерпало все меры, включая жесткое ограничение рождаемости, но ситуация продолжает ухудшаться. Остается единственный выход — попробовать вернуться на Землю. Чтобы узнать, пригодна ли для жизни покинутая давным-давно планета, правительство отправляет туда сотню молодых правонарушителей, в числе которых оказываются дети высокопоставленных чиновников и других известных на Ковчеге людей. Теперь судьба всего человечества зависит от этой группы изгнанников...

    Список серий:
    Сезон 1
    01. Пилот
    02. Выжить на Земле
    03. Умереть на Земле
    04. Закон Мерфи
    05. Последний луч сумерек
    06. Ради сестры
    07. Под давлением
    08. Однодневное путешествие
    09. День единства
    10. Я стал Смертью
    11. Тишина
    12. Мы - земляне: часть 1
    13. Мы - земляне: часть 2
    Сезон 2
    01. 48
    02. Суровая Вэзер
    03. Последствия
    04. Долгих лет жизни
    05. Эксперименты над людьми
    06. Туман войны
    07. В самую бездну
    08. Космический странник

    Снималось в:США
    Киностудия: Bonanza Productions, Alloy Entertainment, Warner Bros. Television
    Время просмотра: 21 х ~ 00:42:00
    Перевод текста: Профессиональный (многоголосый, закадровый) LostFilm
    Файл
    Тип видео:MP4
    Качество фильма:WEB-DLRip | КПК
    Информация о видео:MPEG-4 AVC (x264), 640x360, ~500 kbps, 23.976 fps
    Информация о звуке:AAC LC, 48.0 KHz, 2 ch, 128 Kbps
    Субтитры:Нет
    Семпл
    Скриншоты

    MI
    Complete name : E:KinoSotnya.AVC.WEB-DLRip.KPK.LF.GeneralfilmSotnya.S02.2014-2015.AVC.WEB-DLRip.KPK.LF.GeneralfilmSotnya.s02e08.2014.AVC.WEB-DLRip.KPK.LF.Generalfilm.mp4
    Format : MPEG-4
    Format profile : Base Media
    Codec ID : isom
    File size : 192 MiB
    Duration : 42mn 33s
    Overall bit rate mode : Variable
    Overall bit rate : 632 Kbps
    Encoded date : UTC 2015-01-15 10:32:58
    Tagged date : UTC 2015-01-15 10:32:58
    Video
    ID : 1
    Format : AVC
    Format/Info : Advanced Video Codec
    Format profile : High@L4.1
    Format settings, CABAC : Yes
    Format settings, ReFrames : 8 frames
    Codec ID : avc1
    Codec ID/Info : Advanced Video Coding
    Duration : 42mn 33s
    Bit rate : 500 Kbps
    Maximum bit rate : 2 962 Kbps
    Width : 640 pixels
    Height : 360 pixels
    Display aspect ratio : 16:9
    Frame rate mode : Constant
    Frame rate : 23.976 fps
    Color space : YUV
    Chroma subsampling : 4:2:0
    Bit depth : 8 bits
    Scan type : Progressive
    Bits/(Pixel*Frame) : 0.091
    Stream size : 152 MiB (79%)
    Writing library : x264 core 130 r2273 b3065e6
    Encoding settings : cabac=1/ref=8/deblock=1:-2:-2/analyse=0x3:0x133/me=umh/subme=10/psy=1/psy_rd=1.00:0.00/mixed_ref=1/me_range=24/chroma_me=1/trellis=2/8x8dct=1/cqm=0/deadzone=21,11/fast_pskip=1/chroma_qp_offset=-2/threads=12/lookahead_threads=2/sliced_threads=0/nr=0/decimate=0/interlaced=0/bluray_compat=0/constrained_intra=0/bframes=8/b_pyramid=2/b_adapt=2/b_bias=0/direct=3/weightb=1/open_gop=0/weightp=2/keyint=240/keyint_min=121/scenecut=40/intra_refresh=0/rc_lookahead=40/rc=2pass/mbtree=1/bitrate=500/ratetol=1.0/qcomp=0.60/qpmin=0/qpmax=69/qpstep=4/cplxblur=20.0/qblur=0.5/ip_ratio=1.40/aq=1:1.00
    Encoded date : UTC 2015-01-15 10:32:58
    Tagged date : UTC 2015-01-15 10:33:02
    Audio
    ID : 2
    Format : AAC
    Format/Info : Advanced Audio Codec
    Format profile : LC
    Codec ID : 40
    Duration : 42mn 33s
    Bit rate mode : Variable
    Bit rate : 128 Kbps
    Maximum bit rate : 224 Kbps
    Channel count : 2 channels
    Channel positions : Front: L R
    Sampling rate : 48.0 KHz
    Compression mode : Lossy
    Delay relative to video : 125ms
    Stream size : 39.0 MiB (20%)
    Encoded date : UTC 2015-01-15 10:33:01
    Tagged date : UTC 2015-01-15 10:33:02

    Релиз подготовил:
    Залил: toys_watch
    Размер скачиваемого торрента: 3.91 GB (4193237811 Bytes)

    Сотня/100/The 100/The Hundred (2014-2015) WEB-DLRip от Generalfilm | КПК | LostFilm торрент скачать бесплатно
    загрузка...
    Рейтинг →
     (голосов: 1, оценка 3/5, голосовать можно 1 раз )

    Другие торренты по теме:

  • VA - Улетная сотня осеннего Trance vol.12 (2012) MP3
  • VA - Улетная сотня зимнего Trance vol.13 (2012) MP3
  • VA - Улетная сотня зимнего Trance vol.14 (2012) MP3
  • VA - Улетная сотня весеннего Trance vol.15 (2013) MP3
  • VA - Улетная сотня летнего Trance vol.16 (2013) MP3
  • VA - Улетная сотня осеннего Trance vol.17 (2013) MP3
  • VA - Улетная сотня зимнего Trance vol.18 (2013) MP3 скачать через торрент бесплатно
  • Сотня / 100 / The 100 / The Hundred (2014) WEB-DL 1080p | NewStudio скачать через торрент бесплатно


    • Комментарии (0):

      Информация

      Информация

        Посетители, находящиеся в группе Гости, не могут оставлять комментарии в данной новости.

        ↓ Меню



        ↓ Опрос

        А Вы добавили сайт в закладки?
        Да
        Не


        Top 10 за месяц (Фильмы)