.
Авторизация | Регистрация
Хочешь лучшие торренты? Добавь свой email!
Добавить
» » Типа копы / Lets Be Cops (2014) BDRip 720p | KinoGadget | iPad торрент скачать бесплатно




    Типа копы / Lets Be Cops (2014) BDRip 720p | KinoGadget | iPad торрент скачать бесплатно

    Опубликовал: Админ | Дата: 27-02-2015, 11:10 | Просмотров: 144


    Создали в: 2014
    Снималось в: США
    Категория жанра: комедия, криминал
    Время просмотра: 01:44:28
    Перевод текста: Дублированный
    Главный режиссер: Люк Гринфилд

    Актеры
    Дэймон Уайанс мл., Джейк Джонсон, Роб Риггл, Нина Добрев, Джеймс Д’Арси, Энди Гарсиа, Анджела Кереч, Кинг, Либби Блэнтон, Кигэн-Майкл Ки
    Описание: Получив приглашение на костюмированную вечеринку, два нерадивых приятеля решают нарядиться полицейскими, и вдруг их популярность среди гостей подскакивает до максимума. На волне успеха парни продолжают игру. Но неожиданно псевдокопы оказываются впутанными в реальную криминальную историю, и теперь им придется применить свои фальшивые значки по полной.

    Информация о видео кодек:MPEG-4 AVC
    Качество фильма:BDRip 720p
    Параметры Видео:1280x688, 23.976 fps; ~1 858 kbps avg
    Параметры Звука:48.0 KHz, AAC, ~165.00 kbps avg, 2ch
    Тип видео:mp4
    Релиз:
    Meta Tags


    MI
    General
    Complete name : E:Tipa_kopy.2014.D.BDRip.720p_KinoGadget.mp4
    Format : MPEG-4
    Format profile : Base Media
    Codec ID : isom
    File size : 1.48 GiB
    Duration : 1h 44mn
    Overall bit rate mode : Variable
    Overall bit rate : 2 031 Kbps
    Movie name : Типа копы
    Performer : Люк Гринфилд
    Genre : Comedy
    ContentType : Short Film
    Recorded date : 2014
    Encoded date : UTC 2015-01-22 15:34:48
    Tagged date : UTC 2015-01-22 15:48:06
    Cover : Yes
    ContentRating : mpaa|R|400|
    LongDeion : Получив приглашение на костюмированную вечеринку, два нерадивых приятеля решают нарядиться полицейскими, и вдруг их популярность среди гостей подскакивает до максимума. На волне успеха парни продолжают игру. Но неожиданно псевдокопы оказываются впутанными в реальную криминальную историю, и теперь им придется применить свои фальшивые значки по полной.
    HDVideo : Yes
    Video
    ID : 1
    Format : AVC
    Format/Info : Advanced Video Codec
    Format profile : High@L4.1
    Format settings, CABAC : Yes
    Format settings, ReFrames : 9 frames
    Codec ID : avc1
    Codec ID/Info : Advanced Video Coding
    Duration : 1h 44mn
    Bit rate : 1 858 Kbps
    Maximum bit rate : 9 647 Kbps
    Width : 1 280 pixels
    Height : 688 pixels
    Display aspect ratio : 1.85:1
    Frame rate mode : Constant
    Frame rate : 23.976 fps
    Color space : YUV
    Chroma subsampling : 4:2:0
    Bit depth : 8 bits
    Scan type : Progressive
    Bits/(Pixel*Frame) : 0.088
    Stream size : 1.36 GiB (91%)
    Writing library : x264 core 144 r2525 40bb568
    Encoding settings : cabac=1/ref=9/deblock=1:-2:-1/analyse=0x3:0x133/me=umh/subme=10/psy=1/psy_rd=1.00:0.20/mixed_ref=1/me_range=24/chroma_me=1/trellis=2/8x8dct=1/cqm=0/deadzone=21,11/fast_pskip=1/chroma_qp_offset=-3/threads=3/lookahead_threads=1/sliced_threads=0/nr=0/decimate=1/interlaced=0/bluray_compat=0/constrained_intra=0/bframes=6/b_pyramid=2/b_adapt=2/b_bias=0/direct=3/weightb=1/open_gop=0/weightp=2/keyint=240/keyint_min=23/scenecut=40/intra_refresh=0/rc_lookahead=60/rc=crf/mbtree=1/crf=21.0/qcomp=0.60/qpmin=0/qpmax=69/qpstep=4/ip_ratio=1.40/aq=2:1.00
    Encoded date : UTC 2015-01-22 11:23:31
    Tagged date : UTC 2015-01-22 15:35:29
    Audio
    ID : 2
    Format : AAC
    Format/Info : Advanced Audio Codec
    Format profile : LC
    Codec ID : 40
    Duration : 1h 44mn
    Duration_FirstFrame : 64ms
    Bit rate mode : Variable
    Bit rate : 165 Kbps
    Maximum bit rate : 230 Kbps
    Channel count : 2 channels
    Channel positions : Front: L R
    Sampling rate : 48.0 KHz
    Compression mode : Lossy
    Stream size : 124 MiB (8%)
    Tagged date : UTC 2015-01-22 15:35:29

    Скриншоты


    Залил: KinoGadget
    Размер скачиваемого торрента: 1.48 GB (1591748978 Bytes)

    Типа копы/Lets Be Cops (2014) BDRip 720p | KinoGadget | iPad торрент скачать бесплатно
    загрузка...
    Рейтинг →
     (голосов: 1, оценка 5/5, голосовать можно 1 раз )

    Другие торренты по теме:

  • Фейковые копы / Типа копы (2014)
  • Типа копы / Lets Be Cops скачать через торрент бесплатно
  • Типа копы / Lets Be Cops (2014) CAMRip скачать через торрент бесплатно
  • Типа копы / Lets Be Cops (2014) BDRip-AVC от Leonardo and Scarabey | Чистый звук скачать через торрент бесплатно
  • Типа копы / Lets Be Cops (2014) BDRip 1080p | Чистый звук скачать через торрент бесплатно
  • Типа копы / Lets Be Cops (2014) BDRip 1080p от Leonardo and Scarabey | Чистый звук скачать через торрент бесплатно
  • Типа копы / Lets Be Cops (2014) BDRip 720p от Leonardo and Scarabey | Чистый звук скачать через торрент бесплатно
  • Типа копы / Lets Be Cops (2014) BDRip-AVC от MediaClub | Чистый звук скачать через торрент бесплатно


    • Комментарии (0):

      Информация

      Информация

        Посетители, находящиеся в группе Гости, не могут оставлять комментарии в данной новости.

        ↓ Меню



        ↓ Опрос

        А Вы добавили сайт в закладки?
        Да
        Не


        Top 10 за месяц (Фильмы)