.
Авторизация | Регистрация
» » Бродяга Кэнсин: Великий киотский пожар / Rurouni Kenshin: Kyoto Inferno (2014) WEB-DL 720p | L2 скачать через торрент бесплатно




    Бродяга Кэнсин: Великий киотский пожар / Rurouni Kenshin: Kyoto Inferno (2014) WEB-DL 720p | L2 скачать через торрент бесплатно

    Опубликовал: Админ | Дата: 27-02-2015, 11:10 | Просмотров: 137


    Детально о кино
    Русское название:Бродяга Кэнсин: Великий киотский пожар (2014)
    Русское название в мировом прокате:Rurouni Kenshin: Kyoto Inferno
    Создали в:2014
    Категория жанра:Боевик, Драма
    Главный режиссер:Кейдзи Отомо

    Актеры
    Такеру Сато, Ю Аои, Эми Такеи, Йосукэ Эгути, Тацуя Фудзивара, Мин Танака, Юсукэ Исейа, Рюноскэ Камики, Лиза Ульель, Мунэтака Аоки, Даи Ватанабе, Томоми Маруяма

    Сюжет фильма

    Продолжение истории о похождениях Кэнсина Химуры, некогда легендарного убийцы, вступившего на путь искупления. На этот раз Кэнсин вступает в противостояние с самим Шишио Макото, злодеем, вознамерившимся свергнуть правительство Мэйдзи и подчинить себе всю Японию. Судьба страны висит на волоске, и скиталец-самурай Химура вновь берет в руки меч, к которому он поклялся никогда не прикасаться снова.

    Снималось в:Япония
    Время просмотра:02:18:38
    Перевод текста:Любительский (двуголосый закадровый) -DeadSno den904
    Файл
    Качество фильма:WEB-DL 720p
    Информация о видео:MPEG-4 AVC, 3915 Kбит/с, 1280x532, 23,976 кадр/с
    Информация о звуке:Русский, японский (AC3, 6 ch, 384 Кбит/с),
    Субтитры:Английские (Вшитые отключаемые)
    Семпл
    MediaInfo:
    Скрытый текст
    Общее
    Уникальный идентификатор : 239222196218299743208694654351964831399 (0xB3F884E41FA5C31B8B72DB12A12AFEA7)
    Полное имя : C:ТоррентыБродяга Кэнсин.Великий киотский пожар.2014.WEB-DL.720p.mkv
    Формат : Matroska
    Версия формата : Version 4/Version 2
    Размер файла : 4,63 Гбайт
    Продолжительность : 2 ч. 18 м.
    Общий поток : 4778 Кбит/сек
    Дата кодирования : UTC 2014-12-15 21:36:14
    Программа кодирования : mkvmerge v7.4.0 (;Circles;) 64bit built on Dec 12 2014 12:19:56
    Библиотека кодирования : libebml v1.3.0 + libmatroska v1.4.1
    Видео
    Идентификатор : 1
    Формат : AVC
    Формат/Информация : Advanced Video Codec
    Профиль формата : Main@L3.1
    Параметр CABAC формата : Нет
    Параметр ReFrames формата : 2 кадра
    Параметр GOP формата : N=1
    Идентификатор кодека : V_MPEG4/ISO/AVC
    Продолжительность : 2 ч. 18 м.
    Битрейт : 3915 Кбит/сек
    Ширина : 1280 пикселей
    Высота : 532 пикселя
    Соотношение сторон : 2,40:1
    Режим частоты кадров : Постоянный
    Частота кадров : 23,976 кадра/сек
    Цветовое пространство : YUV
    Субдискретизация насыщенности : 4:2:0
    Битовая глубина : 8 бит
    Тип развёртки : Прогрессивная
    Бит/(Пиксели*Кадры) : 0.240
    Размер потока : 3,79 Гбайт (82%)
    Язык : Japanese
    Default : Да
    Forced : Нет
    Основные цвета : BT.709
    Характеристики трансфера : BT.709
    Коэффициенты матрицы : BT.709
    colour_range : Limited
    Аудио #1
    Идентификатор : 2
    Формат : AC-3
    Формат/Информация : Audio Coding 3
    Расширение режима : CM (complete main)
    Параметр Endianness формата : Big
    Идентификатор кодека : A_AC3
    Продолжительность : 2 ч. 18 м.
    Вид битрейта : Постоянный
    Битрейт : 384 Кбит/сек
    Каналы : 6 каналов
    Расположение каналов : Front: L C R, Side: L R, LFE
    Частота : 48,0 КГц
    Битовая глубина : 16 бит
    Метод сжатия : С потерями
    Размер потока : 381 Мбайт (8%)
    Заголовок : Влад и Снежинка
    Язык : Russian
    Default : Да
    Forced : Да
    Аудио #2
    Идентификатор : 3
    Формат : AC-3
    Формат/Информация : Audio Coding 3
    Расширение режима : CM (complete main)
    Параметр Endianness формата : Big
    Идентификатор кодека : A_AC3
    Продолжительность : 2 ч. 18 м.
    Вид битрейта : Постоянный
    Битрейт : 384 Кбит/сек
    Каналы : 6 каналов
    Расположение каналов : Front: L C R, Side: L R, LFE
    Частота : 48,0 КГц
    Битовая глубина : 16 бит
    Метод сжатия : С потерями
    Размер потока : 381 Мбайт (8%)
    Язык : Japanese
    Default : Нет
    Forced : Нет
    Текст #1
    Идентификатор : 4
    Формат : UTF-8
    Идентификатор кодека : S_TEXT/UTF8
    Идентификатор кодека/Информация : UTF-8 Plain Text
    Язык : Russian
    Default : Да
    Forced : Да
    Текст #2
    Идентификатор : 5
    Формат : UTF-8
    Идентификатор кодека : S_TEXT/UTF8
    Идентификатор кодека/Информация : UTF-8 Plain Text
    Язык : English
    Default : Нет
    Forced : Нет

    Скриншоты

    Залил: JUONGrudge
    Размер скачиваемого торрента: 4.63 GB (4967672465 Bytes)

    Бродяга Кэнсин: Великий киотский пожар/Rurouni Kenshin: Kyoto Inferno (2014) WEB-DL 720p | L2 скачать через торрент бесплатно
    загрузка...
    Рейтинг →
     (голосов: 1, оценка 5/5, голосовать можно 1 раз )

    Другие торренты по теме:

  • Бродяга Кэнсин / Rurouni Kenshin / Rurni Kenshin: Meiji kenkaku roman tan (2012) HDRip | L2 торрент скачать бесплатно
  • OST - Бродяга Кэнсин / Rurouni Kenshin (2012) MP3 торрент скачать бесплатно
  • Бродяга Кэнсин / Rurouni Kenshin / Ruroni Kenshin: Meiji kenkaku roman tan (2012) HDRip КПК от R.G.RealMT | L2 торрент скачать бесплатно
  • Бродяга Кэнсин 3 / Rurouni Kenshin: Meiji Kenkaku Romantan - Shin Kyoto Hen (2013) BDRip 1080p скачать через торрент бесплатно
  • Бродяга Кэнсин / Rurouni Kenshin (2012) HDRip от RG Orient Extreme | L скачать через торрент бесплатно
  • Бродяга Кэнсин: Великий киотский пожар / Rurouni Kenshin: Kyoto Inferno (2014) WEB-DLRip | L2 торрент скачать бесплатно
  • Бродяга Кэнсин / Rurouni Kenshin (2014) HDTVRip| L 2 торрент скачать бесплатно
  • Бродяга Кэнсин: Последняя легенда / Rurni Kenshin: Densetsu no saigo-hen (2014) HDRip т RG Orient Extreme | L2 торрент скачать бесплатно


    • Комментарии (0):

      Информация

      Информация

        Посетители, находящиеся в группе Гости, не могут оставлять комментарии в данной новости.

        ↓ Меню



        ↓ Опрос

        А Вы добавили сайт в закладки?
        Да
        Не


        Top 10 за неделю (Фильмы)