.
Авторизация | Регистрация
Хочешь лучшие торренты? Добавь свой email!
Добавить
» » Доктор Фрост / Dr. Frost (2014) HDTVRip 720р | L2 торрент скачать бесплатно




    Доктор Фрост / Dr. Frost (2014) HDTVRip 720р | L2 торрент скачать бесплатно

    Опубликовал: Админ | Дата: 27-02-2015, 11:10 | Просмотров: 193


    Снималось в: Южная Корея
    Создали в: 2014 г.
    Категория жанра: Психология, криминал, драма
    Время просмотра: 10 эпизодов по ~60 минут.
    Главный режиссер: Sung Yong-Il

    Актеры

    Сон Чхан Ый - профессор Пэк Нам Бон(доктор Фрост)
    Чон Ын Чхэ - Юн Сон А
    Ли Юн Чжи - профессор Сон
    Сон Чи Ру - детектив Нам Тхэ Бон
    Чхве Чон У - Чон Сан Вон(декан факультета психологии)

    Описание: В центре истории - доктор психологии Пэк Нам Бон. Он настоящий гений, однако из-за перенесенной в детстве операции на мозге не способен сопереживать. За свою неэмоциональность он получает прозвище доктор Фрост.
    Благодаря тонкому уму и удивительной способности подмечать мелочи, он становится помощником полиции при раскрытии преступлений.
    (Дорама основана на популярной веб-манхве).

    Озвучка- Любительская (двухголосая закадровая)
    Kinko(Женский)
    Aleister(Мужской)
    Семпл

    Качество фильма видео: HDTVRip(720р)
    Тип видео видео: AVI
    Тип релиза: Полухардсаб(надписи, пояснения терминов)
    Информация о видео: XviD, 1280x720, 3000 Кбит/сек, 29.970 кадров/сек
    Информация о звуке: AC-3, 2.0, 192 кбит/с, 48,0 кГц

    Список эпизодов

    1. Другое желание.
    2. Провал в памяти.
    3. Как носить маску.
    4. Опасная любовь.
    5. Память.

    Подробные тех. данные

    General
    Complete name : D:Dr.Frost (HDTVRip 1280x720 XviD AC-3 ru) Kinko,AleisterDr.Frost 01 Kinko,Aleister.avi
    Format : AVI
    Format/Info : Audio Video Interleave
    File size : 1.32 GiB
    Duration : 58mn 39s
    Overall bit rate : 3 211 Kbps
    Writing application : VirtualDubMod 1.5.10.2 (build 2542/release)
    Writing library : VirtualDubMod build 2542/release
    Video
    ID : 0
    Format : MPEG-4 Visual
    Format profile : Advanced Simple@L5
    Format settings, BVOP : 2
    Format settings, QPel : No
    Format settings, GMC : No warppoints
    Format settings, Matrix : Default (H.263)
    Muxing mode : Packed bitstream
    Codec ID : XVID
    Codec ID/Hint : XviD
    Duration : 58mn 39s
    Bit rate : 3 008 Kbps
    Width : 1 280 pixels
    Height : 720 pixels
    Display aspect ratio : 16:9
    Frame rate : 29.970 fps
    Color space : YUV
    Chroma subsampling : 4:2:0
    Bit depth : 8 bits
    Scan type : Progressive
    Compression mode : Lossy
    Bits/(Pixel*Frame) : 0.109
    Stream size : 1.23 GiB (94%)
    Writing library : XviD 73
    Audio
    ID : 1
    Format : AC-3
    Format/Info : Audio Coding 3
    Mode extension : CM (complete main)
    Format settings, Endianness : Big
    Codec ID : 2000
    Duration : 58mn 39s
    Bit rate mode : Constant
    Bit rate : 192 Kbps
    Channel(s) : 2 channels
    Channel positions : Front: L R
    Sampling rate : 48.0 KHz
    Bit depth : 16 bits
    Compression mode : Lossy
    Stream size : 80.6 MiB (6%)
    Alignment : Split accross interleaves
    Interleave, duration : 33 ms (1.00 video frame)
    Interleave, preload duration : 500 ms

    Скриншоты


    /b/b
    Размер скачиваемого торрента: 5.59 GB (6000345508 Bytes)

    Доктор Фрост/Dr. Frost (2014) HDTVRip 720р | L2 торрент скачать бесплатно
    загрузка...
    Рейтинг →
     (голосов: 1, оценка 3/5, голосовать можно 1 раз )

    Другие торренты по теме:

  • Доктор на свободе (Доктор возвращается) / Doctor at Large (1957) DVDRip от egoleshik | P2
  • Шляхов Андрей – Доктор Данилов 11. Доктор Данилов в МЧС (2015) MP3
  • Доктор, доктор / Doctor Doctor (2016) WEB-DLRip | AlexFilm
  • Доктор, доктор / Doctor Doctor (2016) WEB-DLRip 1080p | AlexFilm
  • Доктор Кто / Doctor Who (2012) WEB-DLRip | BaibaKo
  • Доктор Дулиттл / Doctor Dolittle (1967) BDRip от HQCLUB
  • Кинси / Доктор Кинси / Kinsey (2004) DVDRip от Youtracker | P | Лицензия
  • Доктор заяц и легенда о Зубном королевстве / Legend of dental Kingdom (2009) DVDRip от RG Superdetki


    • Комментарии (0):

      Информация

      Информация

        Посетители, находящиеся в группе Гости, не могут оставлять комментарии в данной новости.

        ↓ Меню



        ↓ Опрос

        А Вы добавили сайт в закладки?
        Да
        Не


        Top 10 за месяц (Фильмы)