.
Авторизация | Регистрация
Хочешь лучшие торренты? Добавь свой email!
Добавить
» » Джон Уик / John Wick (2014) BDRip 1080p | A скачать через торрент бесплатно




    Джон Уик / John Wick (2014) BDRip 1080p | A скачать через торрент бесплатно

    Опубликовал: Админ | Дата: 27-02-2015, 11:10 | Просмотров: 415

    Джон Уик/John Wick

    Создали в:2014
    Снималось в:США, Канада, Китай
    Создали в: 87Eleven, Company Films, DefyNite Films
    Слоган:Его лучше не трогать
    Категория жанра:боевик, триллер
    Время просмотра:01:41:12
    Перевод текста:
    Авторский (одноголосый, закадровый) Алексей Матвеев*
    Авторский (одноголосый, закадровый) Дмитрий Есарев*
    *В переводе присутствует ненормативная лексика.
    Субтитры: Russian, English, English {SDH}
    Главный режиссер:Чад Стахелски/Chad Stahelski, Дэвид Лейтч/David Leitch
    Сценарий:Дерек Кольстад/Derek Kolstad
    Продюсер:Бэзил Иваник/Basil Iwanyk, Дэвид Лейтч/David Leitch, Ева Лонгория/Eva Longoria, Чад Стахелски/Chad Stahelski, Майк Уитерилл/Mike Witherill
    Оператор:Джонатан Села/Jonathan Sela
    Композитор:Тайлер Бейтс/Tyler Bates, Джоэл Дж. Ричард/Joel J. Richard

    Актеры

    Киану Ривз(John Wick),Микаэл Нюквист(Viggo Tarasov),Элфи Оуэн-Аллен(Iosef Tarasov),Уиллем Дефо(Marcus),Омер Барнеа(Gregori),Тоби Мур(Victor),Дин Уинтерс(Avi),Эдрианн Палики(Ms. Perkins),Дэниэл Бернхард(Kirill),Бриджет Мойнэхэн(Helen),Джон Легуизамо(Aureilo),Иэн МакШейн(Winston)
    Дублёры:Александр Головчанский (John Wick), Илья Исаев (Viggo Tarasov), Михаил Тихонов (Iosef Tarasov), Валерий Сторожик (Marcus), Ирина Киреева (Ms. Perkins), Михаил Данилюк (Kirill), Радик Мухаметзянов (Aureilo), Владимир Антоник (Winston), Роман Куперман (Jimmy), Сергей Чихачев (Harry), Владимир Антипов (Russian Sniper)
    Бюджет:$20 000 000
    Сборы в США:$43 037 835
    Сборы в России:$2 679 467
    Сборы в мире:$73 579 419
    Мировая премьера:19 сентября 2014
    Премьера (РФ):1 января 2015, West

    Описание фильма
    Джон Уик - бывший наемный убийца - ведет размеренную жизнь, когда преступник крадет его любимый Mustang 1969 года и попутно убивает собаку Дейзи, единственное живое напоминание об умершей жене. Жажда мести пробуждает в нем, казалось, утерянную хватку...
    Рейтинг:

    MPAA:R- Лицам до 17 лет обязательно присутствие взрослого
    Тип видео: Matroska
    Информация о видео: 1920x800 at 23.976 fps, MPEG-4 AVC, ~10.9 Мbps avg
    Aудио#1: Russian: 48 kHz, AC3, 3/2 (L,C,R,l,r) + LFE ch, ~640.00 kbps avg |Авторский, А.Матвеев|
    Aудио#2: Russian: 48 kHz, AC3, 3/2 (L,C,R,l,r) + LFE ch, ~384.00 kbps avg |Авторский, Д.Есарев|
    Информация о звуке#3: Russian: 48 kHz, DTS, 3/2 (L,C,R,l,r) + LFE ch, ~1509.00 kbps avg |Авторский, А.Матвеев|
    Aудио#4: English: 48 kHz, AC3, 3/2 (L,C,R,l,r) + LFE ch, ~640.00 kbps avg
    Информация о звуке#5: English: 48 kHz, AC3, 2/0 (L,R) ch, ~224 kbps avg |Director;s Commentary|
    Знаете ли Вы, что...
    В этом фильме Киану Ривз ездит на черном Dodge Charger. На точно таком же автомобиле он ездил в фильме Короли улиц (2008).
    В сценах рукопашного боя можно заметить, что Джон Уик использует приемы дзюдо, а его соперник миссис Перкинс - джиу-джитсу.
    По словам Киану Ривза, он сам исполнил 90 процентов своих трюков в фильме.
    Киану Ривз выучил всю сцену сражения в ночном клубе в тот же день, когда она была снята.
    Персонаж Джон Уик также есть в видеоигре Payday 2 (2013). Он был добавлен в игру за два дня до выхода фильма в прокат.
    Имя Джон Уик было дано главному персонажу сценаристом Дереком Кольстадом в честь его дедушки.
    Охранник, который машет Уику на взлетно-посадочной полосе, читает роман Треваньяна (Род Уитакер) Шибуми. В этом романе описываются события, схожие с сюжетом фильма: ушедший на покой наемный убийца вынужден вновь взяться за свое ремесло. Также история, которую рассказывает Вигго о том, как Уик убил трех людей при помощи карандаша, является отсылкой к роману Шибуми, герой которого использовал для совершения убийств различные предметы быта.
    В ходе телефонного разговора между Джоном Уиком и Уинстоном перед финальной сценой они оба используют смартфоны, и у каждого из них горят сенсорные экраны во время разговора.
    В Нью-Джерси, когда Джон Уик впервые сталкивается с Иосифом, они оба пользуются заправками с самообслуживанием, которые на самом деле запрещены в этом штате.
    Когда Джон Уик просыпается перед похоронами его жены, его будильник срабатывает в 6 часов утра. Когда он встает в следующих кадрах, то на будильнике уже 10:06. При этом на улице освещение не поменялось.
    В начале фильма есть сцена, где Джон разговаривает с другом на улице под дождем, и у каждого из них в руках черный зонтик. Прямо перед тем, как они расходятся, можно заметить, что зонтики у них в руках поменялись (то есть у Джона в руках зонтик его друга).
    В сцене финальной погони, когда Tahoe сталкивает Dodge Charger с края стены, можно заметить, что у падающего автомобиля отсутствуют трансмиссия, двигатель и карданный вал.
    MI
    General
    Unique ID : 222892090545570523508225769473942691764 (0xA7AF748507B5EF2197D0BDB6CCCB1FB4)
    Complete name : John.Wick.2014.1080p.BluRay.x264-NTb.mkv
    Format : Matroska
    Format version : Version 4/Version 2
    File size : 10.3 GiB
    Duration : 1h 41mn
    Overall bit rate : 14.6 Mbps
    Encoded date : UTC 2015-01-24 14:51:53
    Writing application : mkvmerge v7.3.0 (;Nouages;) 64bit built on Oct 22 2014 18:53:34
    Writing library : libebml v1.3.0 + libmatroska v1.4.1
    Video
    ID : 1
    Format : AVC
    Format/Info : Advanced Video Codec
    Format profile : High@L4.1
    Format settings, CABAC : Yes
    Format settings, ReFrames : 5 frames
    Codec ID : V_MPEG4/ISO/AVC
    Duration : 1h 41mn
    Bit rate : 10.9 Mbps
    Width : 1 920 pixels
    Height : 800 pixels
    Display aspect ratio : 2.40:1
    Frame rate mode : Constant
    Frame rate : 23.976 fps
    Color space : YUV
    Chroma subsampling : 4:2:0
    Bit depth : 8 bits
    Scan type : Progressive
    Bits/(Pixel*Frame) : 0.295
    Stream size : 7.68 GiB (75%)
    Writing library : x264 core 142 r2479 dd79a61
    Encoding settings : cabac=1/ref=5/deblock=1:-3:-3/analyse=0x3:0x133/me=umh/subme=10/psy=1/psy_rd=0.98:0.00/mixed_ref=1/me_range=48/chroma_me=1/trellis=2/8x8dct=1/cqm=0/deadzone=21,11/fast_pskip=1/chroma_qp_offset=-2/threads=16/lookahead_threads=2/sliced_threads=0/nr=0/decimate=1/interlaced=0/bluray_compat=0/constrained_intra=0/bframes=9/b_pyramid=2/b_adapt=2/b_bias=0/direct=3/weightb=1/open_gop=0/weightp=2/keyint=250/keyint_min=23/scenecut=40/intra_refresh=0/rc_lookahead=100/rc=crf/mbtree=0/crf=16.3/qcomp=0.65/qpmin=0/qpmax=69/qpstep=4/vbv_maxrate=50000/vbv_bufsize=62500/crf_max=0.0/nal_hrd=none/filler=0/ip_ratio=1.30/pb_ratio=1.20/aq=2:0.80
    Language : English
    Default : Yes
    Forced : No
    Audio #1
    ID : 2
    Format : AC-3
    Format/Info : Audio Coding 3
    Mode extension : CM (complete main)
    Format settings, Endianness : Big
    Codec ID : A_AC3
    Duration : 1h 41mn
    Bit rate mode : Constant
    Bit rate : 640 Kbps
    Channel(s) : 6 channels
    Channel positions : Front: L C R, Side: L R, LFE
    Sampling rate : 48.0 KHz
    Bit depth : 16 bits
    Compression mode : Lossy
    Stream size : 463 MiB (4%)
    Title : AVO Matveev
    Language : Russian
    Default : Yes
    Forced : No
    Audio #2
    ID : 3
    Format : AC-3
    Format/Info : Audio Coding 3
    Mode extension : CM (complete main)
    Format settings, Endianness : Big
    Codec ID : A_AC3
    Duration : 1h 41mn
    Bit rate mode : Constant
    Bit rate : 384 Kbps
    Channel(s) : 6 channels
    Channel positions : Front: L C R, Side: L R, LFE
    Sampling rate : 48.0 KHz
    Bit depth : 16 bits
    Compression mode : Lossy
    Stream size : 278 MiB (3%)
    Title : AVO Esarev
    Language : Russian
    Default : No
    Forced : No
    Audio #3
    ID : 4
    Format : DTS
    Format/Info : Digital Theater Systems
    Mode : 16
    Format settings, Endianness : Big
    Codec ID : A_DTS
    Duration : 1h 41mn
    Bit rate mode : Constant
    Bit rate : 1 509 Kbps
    Channel(s) : 6 channels
    Channel positions : Front: L C R, Side: L R, LFE
    Sampling rate : 48.0 KHz
    Bit depth : 24 bits
    Compression mode : Lossy
    Stream size : 1.07 GiB (10%)
    Title : AVO Matveev
    Language : Russian
    Default : No
    Forced : No
    Audio #4
    ID : 5
    Format : AC-3
    Format/Info : Audio Coding 3
    Mode extension : CM (complete main)
    Format settings, Endianness : Big
    Codec ID : A_AC3
    Duration : 1h 41mn
    Bit rate mode : Constant
    Bit rate : 640 Kbps
    Channel(s) : 6 channels
    Channel positions : Front: L C R, Side: L R, LFE
    Sampling rate : 48.0 KHz
    Bit depth : 16 bits
    Compression mode : Lossy
    Stream size : 463 MiB (4%)
    Language : English
    Default : No
    Forced : No
    Audio #5
    ID : 6
    Format : AC-3
    Format/Info : Audio Coding 3
    Format profile : Dolby Digital
    Mode extension : CM (complete main)
    Format settings, Endianness : Big
    Codec ID : A_AC3
    Duration : 1h 41mn
    Bit rate mode : Constant
    Bit rate : 224 Kbps
    Channel(s) : 2 channels
    Channel positions : Front: L R
    Sampling rate : 48.0 KHz
    Bit depth : 16 bits
    Compression mode : Lossy
    Stream size : 162 MiB (2%)
    Title : Director;s Commentary
    Language : English
    Default : No
    Forced : No
    Text #1
    ID : 7
    Format : UTF-8
    Codec ID : S_TEXT/UTF8
    Codec ID/Info : UTF-8 Plain Text
    Title : Forced
    Language : Russian
    Default : Yes
    Forced : No
    Text #2
    ID : 8
    Format : UTF-8
    Codec ID : S_TEXT/UTF8
    Codec ID/Info : UTF-8 Plain Text
    Title : Full
    Language : Russian
    Default : No
    Forced : No
    Text #3
    ID : 9
    Format : UTF-8
    Codec ID : S_TEXT/UTF8
    Codec ID/Info : UTF-8 Plain Text
    Language : English
    Default : No
    Forced : No
    Text #4
    ID : 10
    Format : UTF-8
    Codec ID : S_TEXT/UTF8
    Codec ID/Info : UTF-8 Plain Text
    Title : SDH
    Language : English
    Default : No
    Forced : No
    Menu
    00:00:00.000 : en:00:00:00.000
    00:04:57.506 : en:00:04:57.506
    00:12:21.866 : en:00:12:21.866
    00:17:07.735 : en:00:17:07.735
    00:26:25.167 : en:00:26:25.167
    00:32:40.250 : en:00:32:40.250
    00:36:24.599 : en:00:36:24.599
    00:42:16.033 : en:00:42:16.033
    00:45:33.272 : en:00:45:33.272
    00:55:02.507 : en:00:55:02.507
    00:59:27.564 : en:00:59:27.564
    01:06:13.428 : en:01:06:13.428
    01:14:15.910 : en:01:14:15.910
    01:19:13.040 : en:01:19:13.040
    01:27:29.786 : en:01:27:29.786
    01:32:24.789 : en:01:32:24.789
    Скриншоты

    ЦитатаКто-тописал:
    Перевод Алексея Матвеева доступен благодаря: dikii. Работа со звуком: Переводман.
    Перевод Дмитрия Есарева доступен благодаря: mihaildns, mihey10. Работа со звуком: mihaildns.
    Сохранены оригинальные чаптеры как на Blu-ray.

    Размер скачиваемого торрента: 10.29 GB (11047573418 Bytes)

    Джон Уик/John Wick (2014) BDRip 1080p | A скачать через торрент бесплатно
    загрузка...
    Рейтинг →
     (голосов: 1, оценка 3/5, голосовать можно 1 раз )

    Другие торренты по теме:

  • Джон Уик 2 / John Wick: Chapter Two (2017) WEB-DLRip от MegaPeer | iTunes
  • Джон Уик 2 / John Wick: Chapter Two (2017) WEB-DLRip от MegaPeer | iTunes
  • Джон Уик 2 / John Wick: Chapter Two (2017) WEB-DL 1080p | iTunes
  • Джон Уик 2 / John Wick: Chapter Two (2017) WEB-DLRip от Scarabey | iTunes
  • Джон Уик 2 / John Wick: Chapter Two (2017) WEB-DLRip | iTunes
  • Джон Уик 2 / John Wick: Chapter Two (2017) WEB-DLRip-AVC от ExKinoRay | iTunes
  • Джон Уик (2014) скачать через торрент бесплатно
  • Джон Уик / John Wick (2014) CAMRip скачать через торрент бесплатно


    • Комментарии (0):

      Информация

      Информация

        Посетители, находящиеся в группе Гости, не могут оставлять комментарии в данной новости.

        ↓ Меню



        ↓ Опрос

        А Вы добавили сайт в закладки?
        Да
        Не


        Top 10 за месяц (Фильмы)