.
Авторизация | Регистрация
Хочешь лучшие торренты? Добавь свой email!
Добавить
» » Меня там нет / Im Not There (2007) BDRemux | P, P скачать через торрент бесплатно




    Меня там нет / Im Not There (2007) BDRemux | P, P скачать через торрент бесплатно

    Опубликовал: Админ | Дата: 27-02-2015, 11:10 | Просмотров: 125


    Детально о кино
    Русское название:Меня там нет
    Русское название в мировом прокате:I;m Not There
    Создали в:2007
    Категория жанра:драма, музыкальный, биография, авторское кино
    Главный режиссер:Тодд Хейнс/Todd Haynes

    Актеры
    Кристиан Бэйл, Кейт Бланшетт, Маркус Карл Франклин, Ричард Гир, Хит Леджер, Бен Уишоу, Крис Кристофферсон, Шарлотта Гинзбур, Джулиана Мур

    Сюжет фильма

    Своеобразная биография Боба Дилана — шесть историй, шесть персонажей, каждый из которых символизирует определенный период в жизни легендарного исполнителя или особенности его творчества.
    Одиннадцатилетний мальчик, называющий себя Вуди Гуатри, символизирует детство Дилана; он сбегает из детского исправительного центра и отправляется в путешествие, вдвоем с гитарой, на чехле которой написано: Эта штука убивает фашистов. Затем на сцене появляется Джек Роллинс — молодой исполнитель песен в стиле фолк — чуть позже этот социально активный юноша откроет для себя христианство и станет пастором Джоном в церкви маленького захолустного городка.
    Джуд Куинн — это Дилан на вершине своей славы в 60-е годы, а затем Дилан предстает в образе бунтаря, идентифицирующего себя с поэтом Артюром Рембо. Робби Кларк — выдуманный голливудский актер, прославившийся главной ролью в фильме о Джеке Роллинсе, и в то же время Робби — это Дилан-романтик, тяжело переживающий разрыв со своей женой. И, наконец, есть Малыш Билли — постаревший Дилан в декорациях вымышленного городка на Диком Западе.

    Снималось в:США, Германия, Канада
    Киностудия:Killer Films, John Wells Productions, John Goldwyn Productions
    Время просмотра:02:15:33.184
    Перевод текста:Профессиональный (многоголосый закадровый)1 канал
    Профессиональный (многоголосый закадровый)R5
    Файл
    Кодек для видео:h.264
    Качество фильма:BDRemux
    Информация о видео:1920x1080 (16:9), 23.976 fps, AVC, ~18.2 Mbps, 0.367 bits/pixel
    Информация о звуке:
    Русский, 48.0 KHz, AC3, 2 ch, 192 Kbps1 канал
    Русский, 48.0 KHz, AC3, 6 ch, 448 KbpsR5
    Английский, 48.0 KHz, DTS-HD, 6 ch, 16 bit, 1509 Kbps
    Субтитры:
    Английские, SRT(UTF-8)
    Русские, SRT(UTF-8) (на основе R5)
    MI
    Общее
    Уникальный идентификатор : 206947795784279552494391631534804780515 (0x9BB0B218410B3D108C1548F715D945E3)
    Полное имя : E:FilmsMenya_tam_net.2007.BDRemux.mkv
    Формат : Matroska
    Версия формата : Version 4/Version 2
    Размер файла : 19,7 Гбайт
    Продолжительность : 2 ч. 15 м.
    Режим общего битрейта : Переменный
    Общий поток : 20,8 Мбит/сек
    Дата кодирования : UTC 2015-01-26 19:48:38
    Программа кодирования : mkvmerge v7.4.0 (;Circles;) 64bit built on Dec 12 2014 12:19:56
    Библиотека кодирования : libebml v1.3.0 + libmatroska v1.4.1
    DURATION : 02:07:55.365000000
    NUMBER_OF_FRAMES : 915
    NUMBER_OF_BYTES : 81173
    _STATISTICS_WRITING_APP : mkvmerge v7.4.0 (;Circles;) 64bit built on Dec 12 2014 12:19:56
    _STATISTICS_WRITING_DATE_UTC : 2015-01-26 19:48:38
    _STATISTICS_TAGS : BPS DURATION NUMBER_OF_FRAMES NUMBER_OF_BYTES
    Видео
    Идентификатор : 1
    Формат : AVC
    Формат/Информация : Advanced Video Codec
    Профиль формата : High@L4.1
    Параметр CABAC формата : Да
    Параметр ReFrames формата : 4 кадра
    Идентификатор кодека : V_MPEG4/ISO/AVC
    Продолжительность : 2 ч. 15 м.
    Вид битрейта : Переменный
    Максимальный битрейт : 33,0 Мбит/сек
    Ширина : 1920 пикселей
    Высота : 1080 пикселей
    Соотношение сторон : 16:9
    Режим частоты кадров : Постоянный
    Частота кадров : 23,976 кадра/сек
    Цветовое пространство : YUV
    Субдискретизация насыщенности : 4:2:0
    Битовая глубина : 8 бит
    Тип развёртки : Прогрессивная
    Default : Нет
    Forced : Нет
    Основные цвета : BT.709
    Характеристики трансфера : BT.709
    Коэффициенты матрицы : BT.709
    colour_range : Limited
    Аудио #1
    Идентификатор : 2
    Формат : AC-3
    Формат/Информация : Audio Coding 3
    Расширение режима : CM (complete main)
    Параметр Endianness формата : Big
    Идентификатор кодека : A_AC3
    Продолжительность : 2 ч. 15 м.
    Вид битрейта : Постоянный
    Битрейт : 192 Кбит/сек
    Каналы : 2 канала
    Расположение каналов : Front: L R
    Частота : 48,0 КГц
    Битовая глубина : 16 бит
    Метод сжатия : С потерями
    Размер потока : 186 Мбайт (1%)
    Заголовок : 1st Channel
    Язык : Russian
    Default : Да
    Forced : Нет
    Аудио #2
    Идентификатор : 3
    Формат : AC-3
    Формат/Информация : Audio Coding 3
    Расширение режима : CM (complete main)
    Параметр Endianness формата : Big
    Идентификатор кодека : A_AC3
    Продолжительность : 2 ч. 15 м.
    Вид битрейта : Постоянный
    Битрейт : 448 Кбит/сек
    Каналы : 6 каналов
    Расположение каналов : Front: L C R, Side: L R, LFE
    Частота : 48,0 КГц
    Битовая глубина : 16 бит
    Метод сжатия : С потерями
    Размер потока : 434 Мбайт (2%)
    Заголовок : R5
    Язык : Russian
    Default : Нет
    Forced : Нет
    Аудио #3
    Идентификатор : 4
    Формат : DTS
    Формат/Информация : Digital Theater Systems
    Профиль формата : MA/Core
    Режим : 16
    Параметр Endianness формата : Big
    Идентификатор кодека : A_DTS
    Продолжительность : 2 ч. 15 м.
    Вид битрейта : Переменный
    Битрейт : Неизвестно/1509 Кбит/сек
    Каналы : 6 каналов
    Расположение каналов : Front: L C R, Side: L R, LFE
    Частота : 48,0 КГц
    Битовая глубина : 16 бит
    Метод сжатия : Без потерь/Lossy
    Язык : English
    Default : Нет
    Forced : Нет
    Текст #1
    Идентификатор : 5
    Формат : UTF-8
    Идентификатор кодека : S_TEXT/UTF8
    Идентификатор кодека/Информация : UTF-8 Plain Text
    Язык : English
    Default : Нет
    Forced : Нет
    Текст #2
    Идентификатор : 6
    Формат : UTF-8
    Идентификатор кодека : S_TEXT/UTF8
    Идентификатор кодека/Информация : UTF-8 Plain Text
    Язык : Russian
    Default : Нет
    Forced : Нет
    Меню
    00:00:00.000 : en:00:00:00.000
    00:05:02.719 : en:00:05:02.719
    00:10:04.729 : en:00:10:04.729
    00:13:46.826 : en:00:13:46.826
    00:19:34.548 : en:00:19:34.548
    00:27:48.458 : en:00:27:48.458
    00:33:43.939 : en:00:33:43.939
    00:42:00.226 : en:00:42:00.226
    00:47:56.707 : en:00:47:56.707
    00:51:56.613 : en:00:51:56.613
    00:57:50.050 : en:00:57:50.050
    01:03:11.746 : en:01:03:11.746
    01:08:11.045 : en:01:08:11.045
    01:14:10.529 : en:01:14:10.529
    01:22:00.999 : en:01:22:00.999
    01:30:31.551 : en:01:30:31.551
    01:37:10.241 : en:01:37:10.241
    01:45:11.805 : en:01:45:11.805
    01:52:29.034 : en:01:52:29.034
    02:00:51.369 : en:02:00:51.369
    02:08:35.708 : en:02:08:35.708

    Скриншоты

    Релиз подготовил:Temperest
    Залил: Temperest
    Размер скачиваемого торрента: 19.74 GB (21194319322 Bytes)

    Меня там нет/Im Not There (2007) BDRemux | P, P скачать через торрент бесплатно
    загрузка...
    Рейтинг →
     (голосов: 1, оценка 3/5, голосовать можно 1 раз )

    Другие торренты по теме:

  • Меня там нет / Im Not There (2007) НDRip от Scarabey | Р
  • Меня там нет / Im Not There (2007) HDRip-AVC | iPhone
  • Меня там нет / Im Not There (2007) BDRip 720p | P, P скачать через торрент бесплатно


    • Комментарии (0):

      Информация

      Информация

        Посетители, находящиеся в группе Гости, не могут оставлять комментарии в данной новости.

        ↓ Меню



        ↓ Опрос

        А Вы добавили сайт в закладки?
        Да
        Не


        Top 10 за месяц (Фильмы)