.
Авторизация | Регистрация
Хочешь лучшие торренты? Добавь свой email!
Добавить
» » Планета обезьян: Революция / Dawn of the Planet of the Apes (2014) BDRip 720p | KinoGadget | iPad скачать через торрент бесплатно




    Планета обезьян: Революция / Dawn of the Planet of the Apes (2014) BDRip 720p | KinoGadget | iPad скачать через торрент бесплатно

    Опубликовал: Админ | Дата: 27-02-2015, 11:10 | Просмотров: 150


    Создали в: 2014
    Снималось в: США
    Категория жанра: фантастика, боевик, драма
    Время просмотра: 02:10:24
    Перевод текста: Дублированный
    Главный режиссер: Мэтт Ривз

    Актеры
    Энди Серкис, Джейсон Кларк, Гари Олдман, Кери Расселл, Тоби Кеббелл, Коди Смит-МакФи, Кирк Асеведо, Ник Тёрстон, Терри Нотари, Карин Коновал, Джуди Грир, Джон Эйз, Энрике Мурсиано
    Описание: Численность генетически модифицированных обезьян, возглавляемых Цезарем, продолжает увеличиваться, но обезьянам угрожают люди, которым удалось выжить во время ужасной эпидемии десятилетней давности. Поначалу между соперниками устанавливается хрупкий мир, но он оказывается недолговечным. Обезьяны и люди находятся на грани войны, в ходе которой станет понятно, кто из них в будущем станет безраздельно править планетой.

    Информация о видео кодек:MPEG-4 AVC
    Качество фильма:BDRip 720p
    Параметры Видео:1280x688, 23.976 fps; ~1 957 kbps avg
    Параметры Звука:48.0 KHz, AAC, ~165.00 kbps avg, 2ch
    Тип видео:mp4
    Релиз:
    Meta Tags


    MI
    General
    Complete name : E:Planeta.obezian.Revoljcyia.2014.D.BDRip.720p_KinoGadget.mp4
    Format : MPEG-4
    Format profile : Base Media
    Codec ID : isom
    File size : 1.94 GiB
    Duration : 2h 10mn
    Overall bit rate mode : Variable
    Overall bit rate : 2 130 Kbps
    Movie name : Планета обезьян: Революция
    Performer : Мэтт Ривз
    Genre : Action, Drama
    ContentType : Short Film
    Recorded date : 2014
    Encoded date : UTC 2015-01-26 15:55:25
    Tagged date : UTC 2015-01-26 17:47:16
    Cover : Yes
    ContentRating : mpaa|PG-13|300|
    LongDeion : Численность генетически модифицированных обезьян, возглавляемых Цезарем, продолжает увеличиваться, но обезьянам угрожают люди, которым удалось выжить во время ужасной эпидемии десятилетней давности. Поначалу между соперниками устанавливается хрупкий мир, но он оказывается недолговечным. Обезьяны и люди находятся на грани войны, в ходе которой станет понятно, кто из них в будущем станет безраздельно править планетой.
    HDVideo : Yes
    Video
    ID : 1
    Format : AVC
    Format/Info : Advanced Video Codec
    Format profile : High@L4.1
    Format settings, CABAC : Yes
    Format settings, ReFrames : 9 frames
    Codec ID : avc1
    Codec ID/Info : Advanced Video Coding
    Duration : 2h 10mn
    Bit rate : 1 957 Kbps
    Maximum bit rate : 10.1 Mbps
    Width : 1 280 pixels
    Height : 688 pixels
    Display aspect ratio : 1.85:1
    Frame rate mode : Constant
    Frame rate : 23.976 fps
    Color space : YUV
    Chroma subsampling : 4:2:0
    Bit depth : 8 bits
    Scan type : Progressive
    Bits/(Pixel*Frame) : 0.093
    Stream size : 1.78 GiB (92%)
    Writing library : x264 core 144 r2525 40bb568
    Encoding settings : cabac=1/ref=9/deblock=1:-1:-1/analyse=0x3:0x133/me=umh/subme=10/psy=1/psy_rd=1.00:0.20/mixed_ref=1/me_range=24/chroma_me=1/trellis=2/8x8dct=1/cqm=0/deadzone=21,11/fast_pskip=1/chroma_qp_offset=-3/threads=3/lookahead_threads=1/sliced_threads=0/nr=0/decimate=1/interlaced=0/bluray_compat=0/constrained_intra=0/bframes=6/b_pyramid=2/b_adapt=2/b_bias=0/direct=3/weightb=1/open_gop=0/weightp=2/keyint=240/keyint_min=23/scenecut=40/intra_refresh=0/rc_lookahead=60/rc=crf/mbtree=1/crf=21.0/qcomp=0.60/qpmin=0/qpmax=69/qpstep=4/ip_ratio=1.40/aq=2:1.30
    Encoded date : UTC 2015-01-26 14:10:58
    Tagged date : UTC 2015-01-26 15:57:08
    Audio
    ID : 2
    Format : AAC
    Format/Info : Advanced Audio Codec
    Format profile : LC
    Codec ID : 40
    Duration : 2h 10mn
    Duration_FirstFrame : 64ms
    Bit rate mode : Variable
    Bit rate : 165 Kbps
    Maximum bit rate : 263 Kbps
    Channel count : 2 channels
    Channel positions : Front: L R
    Sampling rate : 48.0 KHz
    Compression mode : Lossy
    Stream size : 154 MiB (8%)
    Language : Russian
    Tagged date : UTC 2015-01-26 15:57:08

    Скриншоты


    Залил: KinoGadget
    Размер скачиваемого торрента: 1.94 GB (2083547230 Bytes)

    Планета обезьян: Революция/Dawn of the Planet of the Apes (2014) BDRip 720p | KinoGadget | iPad скачать через торрент бесплатно
    загрузка...
    Рейтинг →
     (голосов: 1, оценка 3/5, голосовать можно 1 раз )

    Другие торренты по теме:

  • Планета обезьян: Коллекция / Planet of the Apes: Collection (1968-1973) BDRip от CinemaClub
  • OST - Планета Обезьян / Planet Of The Apes (2012) MP3
  • Планета обезьян / Planet of the Apes (2001) BDRip 1080p от denis 100 | D,P,A
  • OST - Планета обезьян: Революция / Dawn of the Planet of the Apes (2014) MP3 от AGR - Generalfilm скачать через торрент бесплатно
  • Планета обезьян: Революция / Dawn of the Planet of the Apes (2014) CAMRip *PROPER* | Звук с TS
  • Планета обезьян: Революция / Dawn of the Planet of the Apes скачать через торрент бесплатно
  • Планета обезьян: Революция / Dawn of the Planet of the Apes (2014) WEB-DL 720p | Звук с TS
  • Планета обезьян: Революция / Dawn of the Planet of the Apes (2014) WEB-DLRip | Звук с TS


    • Комментарии (0):

      Информация

      Информация

        Посетители, находящиеся в группе Гости, не могут оставлять комментарии в данной новости.

        ↓ Меню



        ↓ Опрос

        А Вы добавили сайт в закладки?
        Да
        Не


        Top 10 за месяц (Фильмы)