.
Авторизация | Регистрация
Хочешь лучшие торренты? Добавь свой email!
Добавить
» » Книга Илая / The Book of Eli (2010) DVD9 | D, A скачать через торрент бесплатно




    Книга Илая / The Book of Eli (2010) DVD9 | D, A скачать через торрент бесплатно

    Опубликовал: Админ | Дата: 27-02-2015, 11:10 | Просмотров: 154


    Детально о кино
    Русское название:Книга Илая
    Русское название в мировом прокате:The Book of Eli
    Создали в:2010
    Категория жанра:боевик, триллер, драма, приключения
    Главный режиссер:Альберт Хьюз, Аллен Хьюз

    Актеры
    Дензел Вашингтон, Гари Олдман, Мила Кунис, Рэй Стивенсон, Дженнифер Билз, Малкольм МакДауэлл, Фрэнсис де ла Тур, Майкл Гэмбон, Том Уэйтс, Ивэн Джонс

    Сюжет фильма

    После мировой катастрофы Америка превратилась в выжженную пустыню. По бескрайним дорогам, кишащим бандами, враждующими между собой за воду и еду, странствует мудрый Илай. Однажды он прибывает в мрачные края, где когда-то была цветущая Калифорния, а теперь это сущий ад, где бесчинствует тиран Карнеги.


    лицам до 17 лет обязательно присутствие взрослого
    Снималось в:США
    Киностудия:Alcon Entertainment, Silver Pictures
    Время просмотра:113 мин./01:53
    Перевод текста 1:полное дублирование
    Перевод текста 2:авторский (одноголосый, закадровый)
    Бонусы:Фильм о фильме; Смотрите на DVD
    Файл
    Кодек для видео:MPEG2
    Качество фильма:DVD9
    Информация о видео:PAL 16:9 (720x576@1024x576) VBR 6000 Kbps, 25.000 fps
    Информация о звуке 1:Dolby AC3, 6 ch, 48.0 KHz, 448 Kbps(А.Гаврилов)
    Информация о звуке 2:Dolby AC3, 6 ch, 48.0 KHz, 384 Kbps(Ю.Сербин)
    Информация о звуке 3:Dolby AC3, 6 ch, 48.0 KHz, 384 Kbps(дубляж)
    Информация о звуке 4:Dolby AC3, 6 ch, 48.0 KHz, 384 Kbps(оригинал)
    Субтитры:русские
    MediaInfo
    General
    Complete name : D:Book of Eli_DVD9VIDEO_TSVTS_01_1.VOB
    Format : MPEG-PS
    File size : 1 024 MiB
    Duration : 18mn 28s
    Overall bit rate mode : Variable
    Overall bit rate : 7 749 Kbps
    Video
    ID : 224 (0xE0)
    Format : MPEG Video
    Format version : Version 2
    Format profile : Main@Main
    Format settings, BVOP : Yes
    Format settings, Matrix : Custom
    Format settings, GOP : M=3, N=15
    Format settings, picture struc : Frame
    Duration : 18mn 28s
    Bit rate mode : Variable
    Bit rate : 6 000 Kbps
    Width : 720 pixels
    Height : 576 pixels
    Display aspect ratio : 16:9
    Frame rate : 25.000 fps
    Standard : PAL
    Color space : YUV
    Chroma subsampling : 4:2:0
    Bit depth : 8 bits
    Scan type : Interlaced
    Compression mode : Lossy
    Bits/(Pixel*Frame) : 0.579
    Time code of first frame : 00:00:00:00
    Time code source : Group of pictures t_head
    Stream size : 792 MiB (77%)
    Audio #1
    ID : 189 (0xBD)-128 (0x80)
    Format : AC-3
    Format/Info : Audio Coding 3
    Mode extension : CM (complete main)
    Format settings, Endianness : Big
    Muxing mode : DVD-Video
    Duration : 18mn 28s
    Bit rate mode : Constant
    Bit rate : 384 Kbps
    Channel(s) : 6 channels
    Channel positions : Front: L C R, Side: L R, LFE
    Sampling rate : 48.0 KHz
    Bit depth : 16 bits
    Compression mode : Lossy
    Delay relative to video : -6ms
    Stream size : 50.7 MiB (5%)
    Audio #2
    ID : 189 (0xBD)-129 (0x81)
    Format : AC-3
    Format/Info : Audio Coding 3
    Mode extension : CM (complete main)
    Format settings, Endianness : Big
    Muxing mode : DVD-Video
    Duration : 18mn 28s
    Bit rate mode : Constant
    Bit rate : 448 Kbps
    Channel(s) : 6 channels
    Channel positions : Front: L C R, Side: L R, LFE
    Sampling rate : 48.0 KHz
    Bit depth : 16 bits
    Compression mode : Lossy
    Delay relative to video : -6ms
    Stream size : 59.2 MiB (6%)
    Audio #3
    ID : 189 (0xBD)-130 (0x82)
    Format : AC-3
    Format/Info : Audio Coding 3
    Mode extension : CM (complete main)
    Format settings, Endianness : Big
    Muxing mode : DVD-Video
    Duration : 18mn 28s
    Bit rate mode : Constant
    Bit rate : 384 Kbps
    Channel(s) : 6 channels
    Channel positions : Front: L C R, Side: L R, LFE
    Sampling rate : 48.0 KHz
    Bit depth : 16 bits
    Compression mode : Lossy
    Delay relative to video : -6ms
    Stream size : 50.7 MiB (5%)
    Audio #4
    ID : 189 (0xBD)-131 (0x83)
    Format : AC-3
    Format/Info : Audio Coding 3
    Mode extension : CM (complete main)
    Format settings, Endianness : Big
    Muxing mode : DVD-Video
    Duration : 18mn 28s
    Bit rate mode : Constant
    Bit rate : 384 Kbps
    Channel(s) : 6 channels
    Channel positions : Front: L C R, Side: L R, LFE
    Sampling rate : 48.0 KHz
    Bit depth : 16 bits
    Compression mode : Lossy
    Delay relative to video : -6ms
    Stream size : 50.7 MiB (5%)
    Text
    ID : 189 (0xBD)-32 (0x20)
    Format : RLE
    Format/Info : Run-length encoding
    Muxing mode : DVD-Video
    Menu

    Скриншоты

    Залил: carisha
    Размер скачиваемого торрента: 7.74 GB (8315432960 Bytes)

    Книга Илая/The Book of Eli (2010) DVD9 | D, A скачать через торрент бесплатно
    загрузка...
    Рейтинг →
     (голосов: 1, оценка 5/5, голосовать можно 1 раз )

    Другие торренты по теме:

  • Книга Илая / The Book of Eli (2009) BDRip-AVC | iPad
  • Книга Илая / The Book of Eli (2010) BDRip 720p от DHT-Movies
  • Книга Илая / The Book of Eli (2010) BDRip | A скачать через торрент бесплатно
  • Книга Илая / The Book of Eli (2010) BDRip 720p от Leonardo and Scarabey
  • Книга Илая / The Book of Eli (2009) BDRip 1080p от R.G. HD-Films | 60 fps скачать через торрент бесплатно


    • Комментарии (0):

      Информация

      Информация

        Посетители, находящиеся в группе Гости, не могут оставлять комментарии в данной новости.

        ↓ Меню



        ↓ Опрос

        А Вы добавили сайт в закладки?
        Да
        Не


        Top 10 за месяц (Фильмы)