.
Авторизация | Регистрация
Хочешь лучшие торренты? Добавь свой email!
Добавить
» » Джон Уик / John Wick (2014) BDRip 720p | KinoGadget | iPad торрент скачать бесплатно




    Джон Уик / John Wick (2014) BDRip 720p | KinoGadget | iPad торрент скачать бесплатно

    Опубликовал: Админ | Дата: 27-02-2015, 11:10 | Просмотров: 120


    Создали в: 2014
    Снималось в: США, Канада, Китай
    Категория жанра: боевик, триллер
    Время просмотра: 01:41:13
    Перевод текста: Дублированный
    Главный режиссер: Чад Стахелски, Дэвид Лейтч

    Актеры
    Киану Ривз, Микаэл Нюквист, Элфи Оуэн-Аллен, Уиллем Дефо, Дин Уинтерс, Эдрианн Палики, Омер Барнеа, Тоби Мур, Дэниэл Бернхард, Бриджет Мойнэхэн
    Описание: Джон Уик на первый взгляд самый обычный среднестатистический американец, который ведет спокойную мирную жизнь. Однако мало кто знает, что в свое время он был наемным убийцей, причем одним из лучших профессионалов в своем деле.
    После того, как преступник угоняет его любимый Мустанг, 1969 года выпуска, при этом убив его собаку Дейзи, которая была единственным напоминаем об умершей супруге, Джон вынужден вернуться к своему прошлому. Теперь Уик начинает охоту на человека, который имел неосторожность перейти ему дорогу, и он готов на все, чтобы отомстить ему…

    Информация о видео кодек:MPEG-4 AVC
    Качество фильма:BDRip 720p
    Параметры Видео:1280x528, 23.976 fps; ~1 812 kbps avg
    Параметры Звука:48.0 KHz, AAC, ~165.00 kbps avg, 2ch
    Тип видео:mp4
    Релиз:
    Meta Tags


    MI
    General
    Complete name : E:John.Wick.2014.D.BDRip.720p_KinoGadget.mp4
    Format : MPEG-4
    Format profile : Base Media
    Codec ID : isom
    File size : 1.40 GiB
    Duration : 1h 41mn
    Overall bit rate mode : Variable
    Overall bit rate : 1 985 Kbps
    Movie name : Джон Уик
    Performer : Чад Стахелски, Дэвид Лейтч
    Genre : Action, Thriller
    ContentType : Short Film
    Recorded date : 2014
    Encoded date : UTC 2015-01-27 16:07:13
    Tagged date : UTC 2015-01-27 16:32:05
    Cover : Yes
    ContentRating : mpaa|R|400|
    LongDeion : Джон Уик на первый взгляд самый обычный среднестатистический американец, который ведет спокойную мирную жизнь. Однако мало кто знает, что в свое время он был наемным убийцей, причем одним из лучших профессионалов в своем деле.// После того, как преступник угоняет его любимый Мустанг, 1969 года выпуска, при этом убив его собаку Дейзи, которая была единственным напоминаем об умершей супруге, Джон вынужден вернуться к своему прошлому. Теперь Уик начинает охоту на человека, который имел неосторожность перейти ему дорогу, и он готов на все, чтобы отомстить ему…
    HDVideo : Yes
    Video
    ID : 1
    Format : AVC
    Format/Info : Advanced Video Codec
    Format profile : High@L4.1
    Format settings, CABAC : Yes
    Format settings, ReFrames : 11 frames
    Codec ID : avc1
    Codec ID/Info : Advanced Video Coding
    Duration : 1h 41mn
    Bit rate : 1 812 Kbps
    Maximum bit rate : 10.7 Mbps
    Width : 1 280 pixels
    Height : 528 pixels
    Display aspect ratio : 2.40:1
    Frame rate mode : Constant
    Frame rate : 23.976 fps
    Color space : YUV
    Chroma subsampling : 4:2:0
    Bit depth : 8 bits
    Scan type : Progressive
    Bits/(Pixel*Frame) : 0.112
    Stream size : 1.28 GiB (91%)
    Writing library : x264 core 144 r2525 40bb568
    Encoding settings : cabac=1/ref=11/deblock=1:-1:-1/analyse=0x3:0x133/me=umh/subme=10/psy=1/psy_rd=1.00:0.20/mixed_ref=1/me_range=24/chroma_me=1/trellis=2/8x8dct=1/cqm=0/deadzone=21,11/fast_pskip=1/chroma_qp_offset=-3/threads=3/lookahead_threads=1/sliced_threads=0/nr=0/decimate=1/interlaced=0/bluray_compat=0/constrained_intra=0/bframes=6/b_pyramid=2/b_adapt=2/b_bias=0/direct=3/weightb=1/open_gop=0/weightp=2/keyint=240/keyint_min=23/scenecut=40/intra_refresh=0/rc_lookahead=60/rc=crf/mbtree=1/crf=21.0/qcomp=0.60/qpmin=0/qpmax=69/qpstep=4/ip_ratio=1.40/aq=2:2.00
    Encoded date : UTC 2015-01-27 15:19:35
    Tagged date : UTC 2015-01-27 16:07:46
    Audio
    ID : 2
    Format : AAC
    Format/Info : Advanced Audio Codec
    Format profile : LC
    Codec ID : 40
    Duration : 1h 41mn
    Duration_FirstFrame : 64ms
    Bit rate mode : Variable
    Bit rate : 165 Kbps
    Maximum bit rate : 262 Kbps
    Channel count : 2 channels
    Channel positions : Front: L R
    Sampling rate : 48.0 KHz
    Compression mode : Lossy
    Stream size : 120 MiB (8%)
    Language : Russian
    Tagged date : UTC 2015-01-27 16:07:46

    Скриншоты


    Залил: KinoGadget
    Размер скачиваемого торрента: 1.40 GB (1506898711 Bytes)

    Джон Уик/John Wick (2014) BDRip 720p | KinoGadget | iPad торрент скачать бесплатно
    загрузка...
    Рейтинг →
     (голосов: 1, оценка 5/5, голосовать можно 1 раз )

    Другие торренты по теме:



      Комментарии (0):

      Информация

      Информация

        Посетители, находящиеся в группе Гости, не могут оставлять комментарии в данной новости.

        ↓ Меню



        ↓ Опрос

        А Вы добавили сайт в закладки?
        Да
        Не


        Top 10 за месяц (Фильмы)