.
Авторизация | Регистрация
» » Остров проклятых / Shutter Island (2010) DVD9 | D, A торрент скачать бесплатно




    Остров проклятых / Shutter Island (2010) DVD9 | D, A торрент скачать бесплатно

    Опубликовал: Админ | Дата: 27-02-2015, 11:10 | Просмотров: 163


    Детально о кино
    Русское название:Остров проклятых
    Русское название в мировом прокате:Shutter Island
    Создали в:2010
    Категория жанра:триллер, детектив
    Главный режиссер:Мартин Скорсезе

    Актеры
    Леонардо ДиКаприо, Марк Руффало, Бен Кингсли, Макс фон Сюдов, Мишель Уильямс, Эмили Мортимер, Патришия Кларксон, Джеки Эрл Хейли, Тед Левайн, Джон Кэрролл Линч

    Сюжет фильма

    Два американских судебных пристава отправляются на один из островов в штате Массачусетс, чтобы расследовать исчезновение пациентки клиники для умалишенных преступников. При проведении расследования им придется столкнуться с паутиной лжи, обрушившимся ураганом и смертельным бунтом обитателей клиники.


    лицам до 17 лет обязательно присутствие взрослого
    Снималось в:США
    Киностудия:Paramount Pictures, Phoenix Pictures
    Время просмотра:138 мин./02:18
    Перевод текста 1:полное дублирование
    Перевод текста 2:авторский (одноголосый, закадровый)
    Бонусы:Скоро на DVD и Blu-Ray
    Файл
    Кодек для видео:MPEG2
    Качество фильма:DVD9
    Информация о видео:NTSC 16:9 (720x480@853x480) VBR 5539 Kbps, 29.970 fps
    Информация о звуке 1:Dolby AC3, 6 ch, 48.0 KHz, 448 Kbps(А.Гаврилов)
    Информация о звуке 2:Dolby AC3, 6 ch, 48.0 KHz, 448 Kbps(Ю.Сербин)
    Информация о звуке 3:Dolby AC3, 6 ch, 48.0 KHz, 448 Kbps(дубляж)
    Информация о звуке 4:Dolby AC3, 6 ch, 48.0 KHz, 448 Kbps(оригинал)
    Субтитры:русские, английские, испанские, французские
    MediaInfo
    General
    Complete name : E:Ostrov.prokljatyh.2010.DVD-9VIDEO_TSVTS_05_1.VOB
    Format : MPEG-PS
    File size : 1 024 MiB
    Duration : 19mn 8s
    Overall bit rate mode : Variable
    Overall bit rate : 7 480 Kbps
    Video
    ID : 224 (0xE0)
    Format : MPEG Video
    Format version : Version 2
    Format profile : Main@Main
    Format settings, BVOP : Yes
    Format settings, Matrix : Custom
    Format settings, GOP : Variable
    Duration : 19mn 8s
    Bit rate mode : Variable
    Bit rate : 5 539 Kbps
    Maximum bit rate : 9 800 Kbps
    Width : 720 pixels
    Height : 480 pixels
    Display aspect ratio : 16:9
    Frame rate : 29.970 fps
    Standard : Component
    Color space : YUV
    Chroma subsampling : 4:2:0
    Bit depth : 8 bits
    Compression mode : Lossy
    Bits/(Pixel*Frame) : 0.535
    Time code of first frame : 00:00:00;00
    Time code source : Group of pictures t_head
    Stream size : 758 MiB (74%)
    Color primaries : BT.601 NTSC
    Transfer characteristics : BT.601
    Matrix coefficients : BT.601
    Audio #1
    ID : 189 (0xBD)-128 (0x80)
    Format : AC-3
    Format/Info : Audio Coding 3
    Mode extension : CM (complete main)
    Format settings, Endianness : Big
    Muxing mode : DVD-Video
    Duration : 19mn 8s
    Bit rate mode : Constant
    Bit rate : 448 Kbps
    Channel(s) : 6 channels
    Channel positions : Front: L C R, Side: L R, LFE
    Sampling rate : 48.0 KHz
    Bit depth : 16 bits
    Compression mode : Lossy
    Stream size : 61.3 MiB (6%)
    Audio #2
    ID : 189 (0xBD)-129 (0x81)
    Format : AC-3
    Format/Info : Audio Coding 3
    Mode extension : CM (complete main)
    Format settings, Endianness : Big
    Muxing mode : DVD-Video
    Duration : 19mn 8s
    Bit rate mode : Constant
    Bit rate : 448 Kbps
    Channel(s) : 6 channels
    Channel positions : Front: L C R, Side: L R, LFE
    Sampling rate : 48.0 KHz
    Bit depth : 16 bits
    Compression mode : Lossy
    Stream size : 61.3 MiB (6%)
    Audio #3
    ID : 189 (0xBD)-130 (0x82)
    Format : AC-3
    Format/Info : Audio Coding 3
    Mode extension : CM (complete main)
    Format settings, Endianness : Big
    Muxing mode : DVD-Video
    Duration : 19mn 8s
    Bit rate mode : Constant
    Bit rate : 448 Kbps
    Channel(s) : 6 channels
    Channel positions : Front: L C R, Side: L R, LFE
    Sampling rate : 48.0 KHz
    Bit depth : 16 bits
    Compression mode : Lossy
    Stream size : 61.3 MiB (6%)
    Audio #4
    ID : 189 (0xBD)-131 (0x83)
    Format : AC-3
    Format/Info : Audio Coding 3
    Mode extension : CM (complete main)
    Format settings, Endianness : Big
    Muxing mode : DVD-Video
    Duration : 19mn 8s
    Bit rate mode : Constant
    Bit rate : 448 Kbps
    Channel(s) : 6 channels
    Channel positions : Front: L C R, Side: L R, LFE
    Sampling rate : 48.0 KHz
    Bit depth : 16 bits
    Compression mode : Lossy
    Stream size : 61.3 MiB (6%)
    Text #1
    ID : 189 (0xBD)-32 (0x20)
    Format : RLE
    Format/Info : Run-length encoding
    Muxing mode : DVD-Video
    Duration : 19mn 7s
    Text #2
    ID : 189 (0xBD)-33 (0x21)
    Format : RLE
    Format/Info : Run-length encoding
    Muxing mode : DVD-Video
    Duration : 19mn 7s
    Text #3
    ID : 189 (0xBD)-34 (0x22)
    Format : RLE
    Format/Info : Run-length encoding
    Muxing mode : DVD-Video
    Duration : 19mn 7s
    Text #4
    ID : 189 (0xBD)-35 (0x23)
    Format : RLE
    Format/Info : Run-length encoding
    Muxing mode : DVD-Video
    Duration : 19mn 7s
    Text #5
    ID : 189 (0xBD)-36 (0x24)
    Format : RLE
    Format/Info : Run-length encoding
    Muxing mode : DVD-Video
    Duration : 19mn 7s
    Text #6
    ID : 189 (0xBD)-37 (0x25)
    Format : RLE
    Format/Info : Run-length encoding
    Muxing mode : DVD-Video
    Duration : 19mn 7s
    Text #7
    ID : 189 (0xBD)-38 (0x26)
    Format : RLE
    Format/Info : Run-length encoding
    Muxing mode : DVD-Video
    Text #8
    ID : 189 (0xBD)-39 (0x27)
    Format : RLE
    Format/Info : Run-length encoding
    Muxing mode : DVD-Video
    Text #9
    ID : 189 (0xBD)-40 (0x28)
    Format : RLE
    Format/Info : Run-length encoding
    Muxing mode : DVD-Video
    Text #10
    ID : 189 (0xBD)-41 (0x29)
    Format : RLE
    Format/Info : Run-length encoding
    Muxing mode : DVD-Video
    Text #11
    ID : 224 (0xE0)-CC3
    Format : EIA-608
    Muxing mode, more info : Muxed in Video #1
    Bit rate mode : Constant
    Stream size : 0.00 Byte (0%)
    Text #12
    ID : 189 (0xBD)-42 (0x2A)
    Format : RLE
    Format/Info : Run-length encoding
    Muxing mode : DVD-Video
    Text #13
    ID : 189 (0xBD)-43 (0x2B)
    Format : RLE
    Format/Info : Run-length encoding
    Muxing mode : DVD-Video
    Menu

    Скриншоты

    Залил: carisha
    Размер скачиваемого торрента: 7.43 GB (7980847104 Bytes)

    Остров проклятых/Shutter Island (2010) DVD9 | D, A торрент скачать бесплатно
    загрузка...
    Рейтинг →
     (голосов: 1, оценка 4/5, голосовать можно 1 раз )

    Другие торренты по теме:



      Комментарии (0):

      Информация

      Информация

        Посетители, находящиеся в группе Гости, не могут оставлять комментарии в данной новости.

        ↓ Меню



        ↓ Опрос

        А Вы добавили сайт в закладки?
        Да
        Не


        Top 10 за неделю (Фильмы)