.
Авторизация | Регистрация
Хочешь лучшие торренты? Добавь свой email!
Добавить
» » Прямая и явная угроза / Clear and Present Danger (1994) BDRip 720p торрент скачать бесплатно




    Прямая и явная угроза / Clear and Present Danger (1994) BDRip 720p торрент скачать бесплатно

    Опубликовал: Админ | Дата: 27-02-2015, 11:10 | Просмотров: 126

    Прямая и явная угроза/Clear and Present Danger (1994) BDRip
    Создали в:1994
    Создали в:USA/Mace Neufeld Productions, Paramount Pictures
    Категория жанра:боевик, триллер, драма
    Главный режиссер:Филлип Нойс
    Актеры:Харрисон Форд, Уиллем Дефо, Энн Арчер, Жоаким ди Алмейда, Генри Черни, Харрис Юлин, Дональд Моффет, Мигель Сандовал, Бенджамин Брэтт, Рэймонд Крус
    Описание фильма:Джек Райан на этот раз оказывается во главе отдела разведки ЦРУ, и вхож в Овальный кабинет Белого Дома. Он вынужден бороться против колумбийских наркодельцов, не ведая, что при попустительстве президента США его помощник по национальной безопасности и шеф ЦРУ проводят, с помощью наемников, боевые операции в Колумбии...
    Перевод текста:профессиональный (многоголосый закадровый), авторский (одноголосый закадровый)
    Вид субтитров:вшитые, отключаемые
    Язык субтитров:русские, украинские, английские

    Время просмотра:02:21:15
    Качество фильма:BDRip (720p)
    Информация о видео:MPEG-4 AVC/H.264, 1280 x 568 (2,25:1), 5 770 kbps, 23.976 fps, 0.331 b/px
    Информация о звуке # 1:AC3, 6 ch, 640 kbps, 48 000 Hz многоголосый закадровый (Blu-Ray CEE)
    Информация о звуке # 2:AC3, 6 ch, 448 kbps, 48 000 Hz многоголосый закадровый (FDV)
    Информация о звуке # 3:DTS, 6 ch, 1509 kbps, 48 000 Hz одноголосый закадровый (А.Гаврилов)
    Информация о звуке # 4:DTS, 6 ch, 1509 kbps, 48 000 Hz одноголосый закадровый (Ю.Живов)
    Информация о звуке # 5:DTS, 6 ch, 1509 kbps, 48 000 Hz одноголосый закадровый (В.Горчаков)
    Информация о звуке # 6:AC3, 2 ch, 192 kbps, 48 000 Hz многоголосый закадровый (IHTEP) (Украинский)
    Информация о звуке # 7:DTS, 6 ch, 1509 kbps, 48 000 Hz оригинальный
    MediaInfo
    Общее
    Уникальный идентификатор : 205143471112764769132224285409281046678 (0x9A55320527B7197E8EE3AA9BFEAFF896)
    Полное имя : E:1994 Прямая и явная угроза BDRip 720p.mkv
    Формат : Matroska
    Версия формата : Version 4/Version 2
    Размер файла : 13,2 Гбайт
    Продолжительность : 2 ч. 21 м.
    Общий поток : 13,4 Мбит/сек
    Название фильма : Прямая и явная угроза/Clear and Present Danger (1994) BDRip 720p
    Дата кодирования : UTC 2015-01-27 09:42:33
    Программа кодирования : mkvmerge v7.5.0 (;Glass Culture;) 32bit built on Jan 4 2015 16:37:25
    Библиотека кодирования : libebml v1.3.1 + libmatroska v1.4.2
    DURATION : 02:14:42.866000000
    NUMBER_OF_FRAMES : 1568
    NUMBER_OF_BYTES : 51681
    _STATISTICS_WRITING_APP : mkvmerge v7.5.0 (;Glass Culture;) 32bit built on Jan 4 2015 16:37:25
    _STATISTICS_WRITING_DATE_UTC : 2015-01-27 09:42:33
    _STATISTICS_TAGS : BPS DURATION NUMBER_OF_FRAMES NUMBER_OF_BYTES
    Видео
    Идентификатор : 1
    Формат : AVC
    Формат/Информация : Advanced Video Codec
    Профиль формата : High@L4.1
    Параметр CABAC формата : Да
    Параметр ReFrames формата : 11 кадров
    Идентификатор кодека : V_MPEG4/ISO/AVC
    Продолжительность : 2 ч. 21 м.
    Битрейт : 5770 Кбит/сек
    Ширина : 1280 пикселей
    Высота : 568 пикселей
    Соотношение сторон : 2,25:1
    Режим частоты кадров : Постоянный
    Частота кадров : 23,976 кадра/сек
    Цветовое пространство : YUV
    Субдискретизация насыщенности : 4:2:0
    Битовая глубина : 8 бит
    Тип развёртки : Прогрессивная
    Бит/(Пиксели*Кадры) : 0.331
    Размер потока : 5,69 Гбайт (43%)
    Заголовок : 1994 Прямая и явная угроза/Clear and Present Danger BDRip 720p
    Библиотека кодирования : x264 core 142 r2431+42 c69a006 tMod 8-bit@4:2:0 X86_64
    Настройки программы : cabac=1/ref=11/deblock=1:-3:-3/analyse=0x3:0x133/me=umh/subme=10/psy=1/fade_compensate=0.00/psy_rd=1.05:0.00/mixed_ref=1/me_range=24/chroma_me=1/trellis=2/8x8dct=1/cqm=0/deadzone=21,11/fast_pskip=1/chroma_qp_offset=-2/threads=12/lookahead_threads=2/sliced_threads=0/nr=0/decimate=1/interlaced=0/bluray_compat=0/constrained_intra=0/fgo=0/bframes=8/b_pyramid=2/b_adapt=2/b_bias=0/direct=3/weightb=1/open_gop=0/weightp=2/keyint=250/keyint_min=23/scenecut=40/intra_refresh=0/rc_lookahead=60/rc=crf/mbtree=0/crf=15.2000/qcomp=0.65/qpmin=0:0:0/qpmax=69:69:69/qpstep=4/vbv_maxrate=62500/vbv_bufsize=78125/crf_max=0.0/nal_hrd=none/filler=0/ip_ratio=1.30/pb_ratio=1.20/aq=4:0.70/aq-sensitivity=10.00/aq-factor=1.00:1.00:1.00/aq2=0/aq3=0
    Язык : English
    Default : Да
    Forced : Нет
    Коэффициенты матрицы : BT.709
    colour_range : Limited
    DURATION : 02:21:15.467000000
    NUMBER_OF_FRAMES : 203208
    NUMBER_OF_BYTES : 6388501021
    _STATISTICS_WRITING_APP : mkvmerge v7.5.0 (;Glass Culture;) 32bit built on Jan 4 2015 16:37:25
    _STATISTICS_WRITING_DATE_UTC : 2015-01-27 09:42:33
    _STATISTICS_TAGS : BPS DURATION NUMBER_OF_FRAMES NUMBER_OF_BYTES
    Аудио #1
    Идентификатор : 2
    Формат : AC-3
    Формат/Информация : Audio Coding 3
    Расширение режима : CM (complete main)
    Параметр Endianness формата : Big
    Идентификатор кодека : A_AC3
    Продолжительность : 2 ч. 21 м.
    Вид битрейта : Постоянный
    Битрейт : 640 Кбит/сек
    Каналы : 6 каналов
    Расположение каналов : Front: L C R, Side: L R, LFE
    Частота : 48,0 КГц
    Битовая глубина : 16 бит
    Метод сжатия : С потерями
    Размер потока : 647 Мбайт (5%)
    Заголовок : Многоголосый закадровый (Blu-Ray CEE)
    Язык : Russian
    Default : Да
    Forced : Нет
    Аудио #2
    Идентификатор : 3
    Формат : AC-3
    Формат/Информация : Audio Coding 3
    Расширение режима : CM (complete main)
    Параметр Endianness формата : Big
    Идентификатор кодека : A_AC3
    Продолжительность : 2 ч. 21 м.
    Вид битрейта : Постоянный
    Битрейт : 448 Кбит/сек
    Каналы : 6 каналов
    Расположение каналов : Front: L C R, Side: L R, LFE
    Частота : 48,0 КГц
    Битовая глубина : 16 бит
    Метод сжатия : С потерями
    Размер потока : 453 Мбайт (3%)
    Заголовок : Многоголосый закадровый (FDV)
    Язык : Russian
    Default : Нет
    Forced : Нет
    Аудио #3
    Идентификатор : 4
    Формат : DTS
    Формат/Информация : Digital Theater Systems
    Режим : 16
    Параметр Endianness формата : Big
    Идентификатор кодека : A_DTS
    Продолжительность : 2 ч. 21 м.
    Вид битрейта : Постоянный
    Битрейт : 1509 Кбит/сек
    Каналы : 6 каналов
    Расположение каналов : Front: L C R, Side: L R, LFE
    Частота : 48,0 КГц
    Битовая глубина : 24 бит
    Метод сжатия : С потерями
    Размер потока : 1,49 Гбайт (11%)
    Заголовок : Одноголосый закадровый (А.Гаврилов)
    Язык : Russian
    Default : Нет
    Forced : Нет
    Аудио #4
    Идентификатор : 5
    Формат : DTS
    Формат/Информация : Digital Theater Systems
    Режим : 16
    Параметр Endianness формата : Big
    Идентификатор кодека : A_DTS
    Продолжительность : 2 ч. 21 м.
    Вид битрейта : Постоянный
    Битрейт : 1509 Кбит/сек
    Каналы : 6 каналов
    Расположение каналов : Front: L C R, Side: L R, LFE
    Частота : 48,0 КГц
    Битовая глубина : 24 бит
    Метод сжатия : С потерями
    Размер потока : 1,49 Гбайт (11%)
    Заголовок : Одноголосый закадровый (Ю.Живов)
    Язык : Russian
    Default : Нет
    Forced : Нет
    Аудио #5
    Идентификатор : 6
    Формат : DTS
    Формат/Информация : Digital Theater Systems
    Режим : 16
    Параметр Endianness формата : Big
    Идентификатор кодека : A_DTS
    Продолжительность : 2 ч. 21 м.
    Вид битрейта : Постоянный
    Битрейт : 1509 Кбит/сек
    Каналы : 6 каналов
    Расположение каналов : Front: L C R, Side: L R, LFE
    Частота : 48,0 КГц
    Битовая глубина : 24 бит
    Метод сжатия : С потерями
    Размер потока : 1,49 Гбайт (11%)
    Заголовок : Одноголосый закадровый (В.Горчаков)
    Язык : Russian
    Default : Нет
    Forced : Нет
    Аудио #6
    Идентификатор : 7
    Формат : AC-3
    Формат/Информация : Audio Coding 3
    Расширение режима : CM (complete main)
    Параметр Endianness формата : Big
    Идентификатор кодека : A_AC3
    Продолжительность : 2 ч. 21 м.
    Вид битрейта : Постоянный
    Битрейт : 192 Кбит/сек
    Каналы : 2 канала
    Расположение каналов : Front: L R
    Частота : 48,0 КГц
    Битовая глубина : 16 бит
    Метод сжатия : С потерями
    Размер потока : 194 Мбайт (1%)
    Заголовок : Многоголосый закадровый (IHTEP)
    Язык : Ukrainian
    Default : Нет
    Forced : Нет
    Аудио #7
    Идентификатор : 8
    Формат : DTS
    Формат/Информация : Digital Theater Systems
    Режим : 16
    Параметр Endianness формата : Big
    Идентификатор кодека : A_DTS
    Продолжительность : 2 ч. 21 м.
    Вид битрейта : Постоянный
    Битрейт : 1510 Кбит/сек
    Каналы : 6 каналов
    Расположение каналов : Front: L C R, Side: L R, LFE
    Частота : 48,0 КГц
    Битовая глубина : 24 бит
    Метод сжатия : С потерями
    Размер потока : 1,49 Гбайт (11%)
    Заголовок : Оригинальный
    Язык : English
    Default : Нет
    Forced : Нет
    Текст #1
    Идентификатор : 9
    Формат : UTF-8
    Идентификатор кодека : S_TEXT/UTF8
    Идентификатор кодека/Информация : UTF-8 Plain Text
    Заголовок : Russian
    Язык : Russian
    Default : Нет
    Forced : Нет
    Текст #2
    Идентификатор : 10
    Формат : UTF-8
    Идентификатор кодека : S_TEXT/UTF8
    Идентификатор кодека/Информация : UTF-8 Plain Text
    Заголовок : Ukrainian
    Язык : Ukrainian
    Default : Нет
    Forced : Нет
    Текст #3
    Идентификатор : 11
    Формат : UTF-8
    Идентификатор кодека : S_TEXT/UTF8
    Идентификатор кодека/Информация : UTF-8 Plain Text
    Заголовок : English
    Язык : English
    Default : Нет
    Forced : Нет
    Меню
    00:00:00.000 : :00:00:00.000
    00:07:51.637 : :00:07:51.637
    00:12:20.823 : :00:12:20.823
    00:15:48.072 : :00:15:48.072
    00:18:47.042 : :00:18:47.042
    00:25:38.036 : :00:25:38.036
    00:30:02.550 : :00:30:02.550
    00:34:02.415 : :00:34:02.415
    00:40:07.154 : :00:40:07.154
    00:49:25.420 : :00:49:25.420
    00:52:49.583 : :00:52:49.583
    01:02:34.375 : :01:02:34.375
    01:08:45.538 : :01:08:45.538
    01:11:21.902 : :01:11:21.902
    01:20:50.804 : :01:20:50.804
    01:25:51.145 : :01:25:51.145
    01:29:03.755 : :01:29:03.755
    01:36:26.739 : :01:36:26.739
    01:43:23.780 : :01:43:23.780
    01:46:47.984 : :01:46:47.984
    01:54:21.229 : :01:54:21.229
    02:01:07.093 : :02:01:07.093
    02:10:17.476 : :02:10:17.476
    Скриншоты

    Размер скачиваемого торрента: 13.17 GB (14146482230 Bytes)

    Прямая и явная угроза/Clear and Present Danger (1994) BDRip 720p торрент скачать бесплатно
    загрузка...
    Рейтинг →
     (голосов: 1, оценка 5/5, голосовать можно 1 раз )

    Другие торренты по теме:

  • Прямая и явная угроза / Clear and Present Danger (1994) BDRip 1080p
  • Прямая и явная угроза / Clear and Present Danger (1994) BDRip 1080p от BT-Club
  • Прямая и явная угроза / Clear and Present Danger (1994) BDRip от Rulya74 | P скачать через торрент бесплатно
  • Сергей Рязанцев - Территориальные громады - прямая дорога к Народовластию и Копному праву в Украине (2013) DVDRip


    • Комментарии (0):

      Информация

      Информация

        Посетители, находящиеся в группе Гости, не могут оставлять комментарии в данной новости.

        ↓ Меню



        ↓ Опрос

        А Вы добавили сайт в закладки?
        Да
        Не


        Top 10 за месяц (Фильмы)