.
Авторизация | Регистрация
Хочешь лучшие торренты? Добавь свой email!
Добавить
» » Смерть в раю / Death in Paradise (2015) HDTVRip | Райдо скачать через торрент бесплатно




    Смерть в раю / Death in Paradise (2015) HDTVRip | Райдо скачать через торрент бесплатно

    Опубликовал: Админ | Дата: 27-02-2015, 11:10 | Просмотров: 192


    Детально о кино
    Русское название:Смерть в раю
    Русское название в мировом прокате:Death in Paradise
    Создали в:2015
    Категория жанра:триллер, драма, криминал, детектив
    Главный режиссер:Олрик Райли, Роджер Голдби, Пол Харрисон

    Актеры
    Сара Мартинс, Дэнни Джон-Джулс, Гари Карр, Элизабет Буржин, Бен Миллер, Дон Уоррингтон, Крис Маршалл, Эдриан Данбар, Морвен Кристи, Мона Хэммонд

    Сюжет фильма

    Детективный сериал о инспекторе Лондонского управления полиции, Ричарде Пуле, которого отправили вести расследования в одно из самых (по его мнению) ужасных мест на земле — карибский остров Сент-Мари.
    Официальный сайт
    Снималось в:Великобритания, Франция
    Киностудия:Red Planet Pictures and Atlantique Production, in association with Kudos for the BBC and France T?l?visions
    Время просмотра:~00:59:00 серия
    Перевод текста:Любительский (двухголосый закадровый) студия Райдо
    Файл
    Кодек для видео:XviD/MP3
    Качество фильма:HDTVRip
    Информация о видео:MPEG4, XviD, 720x400 (16:9), 25.000 fps, 1 402 Kbps (0.195 bit/pixel)
    Информация о звуке:
    Аудио #1: MP3, 48.0 KHz, 2 ch, 128 Kbps, CBR rus
    Аудио #2: MP3, 48.0 KHz, 2 ch, 128 Kbps, CBR eng
    Субтитры:Русские (внешние)
    Скриншоты
    Screenshots
    MediaInfo
    General
    Complete name : /Death.in.Paradise.s04.HDTVRip.Rus.Eng.Raidho/Death.in.Paradise.s04e01.HDTVRip.Rus.Eng.Raidho.avi
    Format : AVI
    Format/Info : Audio Video Interleave
    File size : 700 MiB
    Duration : 58mn 30s
    Overall bit rate : 1 672 Kbps
    Writing application : VirtualDubMod 1.5.10.3 | www.virtualdub-fr.org || (build 2550/release)
    Writing library : VirtualDubMod build 2550/release
    Video
    ID : 0
    Format : MPEG-4 Visual
    Format profile : Advanced Simple@L5
    Format settings, BVOP : 2
    Format settings, QPel : No
    Format settings, GMC : No warppoints
    Format settings, Matrix : Default (MPEG)
    Codec ID : XVID
    Codec ID/Hint : XviD
    Duration : 58mn 30s
    Bit rate : 1 402 Kbps
    Width : 720 pixels
    Height : 400 pixels
    Display aspect ratio : 16:9
    Frame rate : 25.000 fps
    Color space : YUV
    Chroma subsampling : 4:2:0
    Bit depth : 8 bits
    Scan type : Progressive
    Compression mode : Lossy
    Bits/(Pixel*Frame) : 0.195
    Stream size : 587 MiB (84%)
    Writing library : XviD 73
    Audio #1
    ID : 1
    Format : MPEG Audio
    Format version : Version 1
    Format profile : Layer 3
    Codec ID : 55
    Codec ID/Hint : MP3
    Duration : 58mn 30s
    Bit rate mode : Constant
    Bit rate : 128 Kbps
    Channel(s) : 2 channels
    Sampling rate : 48.0 KHz
    Compression mode : Lossy
    Stream size : 53.6 MiB (8%)
    Alignment : Aligned on interleaves
    Interleave, duration : 40 ms (1.00 video frame)
    Interleave, preload duration : 504 ms
    Writing library : LAME3.99r
    Encoding settings : -m s -V 4 -q 0 -lowpass 17 -b 128
    Audio #2
    ID : 2
    Format : MPEG Audio
    Format version : Version 1
    Format profile : Layer 3
    Codec ID : 55
    Codec ID/Hint : MP3
    Duration : 58mn 30s
    Bit rate mode : Constant
    Bit rate : 128 Kbps
    Channel(s) : 2 channels
    Sampling rate : 48.0 KHz
    Compression mode : Lossy
    Stream size : 53.6 MiB (8%)
    Alignment : Aligned on interleaves
    Interleave, duration : 40 ms (1.00 video frame)
    Interleave, preload duration : 504 ms
    Writing library : LAME3.99r
    Encoding settings : -m s -V 4 -q 0 -lowpass 17 -b 128

    Размер скачиваемого торрента: 1.37 GB (1467858032 Bytes)

    Смерть в раю/Death in Paradise (2015) HDTVRip | Райдо скачать через торрент бесплатно
    загрузка...
    Рейтинг →
     (голосов: 1, оценка 3/5, голосовать можно 1 раз )

    Другие торренты по теме:



      Комментарии (0):

      Информация

      Информация

        Посетители, находящиеся в группе Гости, не могут оставлять комментарии в данной новости.

        ↓ Меню



        ↓ Опрос

        А Вы добавили сайт в закладки?
        Да
        Не


        Top 10 за месяц (Фильмы)